EXO – Exo From Exoplanet#1 – The Lost Planet In Japan 2015 LIMITED 1080p BluRay x264-db

Bluray Limited Edition EXO From Exoplanet#1 The Lost Planet In Japan 2015. Features a concert of EXO’s first world tour “EXO From EXOPLANET #1 – THE LOST PLANET” held in Tokyo, Japan.

EXO FROM.EXOPLANET#1 -THE LOST PLANET IN JAPAN [First Press Limited Edition]
Video: x264 7649 Kbps 1920×1080 pixels 29.970 fps
Audio: AC3 2h 13mn Stereo

The Lost Planet (Opening)
Haka
MAMA
Let Out The Beast
I’m Lay [LAY Solo]
Moonlight
ROCKET DIVE [CHANYEOL Solo] hide Cover
Angel
Black Pearl
Up Rising [CHEN Solo]
XOXO (Kisses & Hugs)
exorient [SEHUN Solo]
Love, Love, Love
Thunder
Tell Me What Is Love [D.O. Solo]
My Lady
My Turn To Cry [BAEKHYUN Solo]
Baby Don’t Cry
Machine
Breakin’ Machine [XIUMIN Solo]
3.6.5
History
Peter Pan
Beautiful [SUHO Solo]
Metal [TAO Solo]
Heart Attack
Deep Breath [KAI Solo]
Overdose

General
Unique ID : 174066261741469865497757152799641086388 (0x82F3F14CE49CB06A970F93BDA010A9B4)
Complete name : D:\null\Exo.From.Exoplanet.1-The.Lost.Planet.In.Japan.2015.LIMITED.1080p.BluRay.x264-db.mkv
Format : Matroska
Format version : Version 4 / Version 2
File size : 7.50 GiB
Duration : 2h 13mn
Overall bit rate : 8 033 Kbps
Movie name : DOWNLOADBOX.ORG
Encoded date : UTC
Writing application : mkvmerge v8.1.0 (‘Psychedelic Postcard’) 64bit
Writing library : Lavf55.12.0

Video
ID : 1
Format : AVC
Format/Info : Advanced Video Codec
Format profile : High@L4.1
Format settings, CABAC : Yes
Format settings, ReFrames : 4 frames
Codec ID : V_MPEG4/ISO/AVC
Duration : 2h 13mn
Bit rate : 7 649 Kbps
Width : 1 920 pixels
Height : 1 080 pixels
Display aspect ratio : 16:9
Frame rate mode : Constant
Frame rate : 29.970 fps
Color space : YUV
Chroma subsampling : 4:2:0
Bit depth : 8 bits
Scan type : Progressive
Bits/(Pixel*Frame) : 0.123
Stream size : 7.15 GiB (95%)
Writing library : x264 core 142 r2479 dd79a61
Encoding settings : cabac=1 / ref=4 / deblock=1:0:0 / analyse=0x3:0x113 / me=umh / subme=8 / psy=1 / psy_rd=1.00:0.00 / mixed_ref=1 / me_range=16 / chroma_me=1 / trellis=1 / 8x8dct=1 / cqm=0 / deadzone=21,11 / fast_pskip=1 / chroma_qp_offset=-2 / threads=12 / lookahead_threads=2 / sliced_threads=0 / nr=0 / decimate=1 / interlaced=0 / bluray_compat=0 / constrained_intra=0 / bframes=3 / b_pyramid=2 / b_adapt=2 / b_bias=0 / direct=3 / weightb=1 / open_gop=0 / weightp=2 / keyint=300 / keyint_min=30 / scenecut=40 / intra_refresh=0 / rc_lookahead=50 / rc=crf / mbtree=1 / crf=20.0 / qcomp=0.60 / qpmin=0 / qpmax=69 / qpstep=4 / vbv_maxrate=62500 / vbv_bufsize=78125 / crf_max=0.0 / nal_hrd=none / filler=0 / ip_ratio=1.40 / aq=1:1.00
Default : Yes
Forced : No
Color primaries : BT.709
Transfer characteristics : BT.709
Matrix coefficients : BT.709
Color range : Limited
DURATION : 02:13:45.250000000
NUMBER_OF_FRAMES : 240517
NUMBER_OF_BYTES : 7831013769
_STATISTICS_WRITING_APP : mkvmerge v8.1.0 (‘Psychedelic Postcard’) 64bit
_STATISTICS_WRITING_DATE_UT : 2015-07-08 03:00:55
_STATISTICS_TAGS : BPS DURATION NUMBER_OF_FRAMES NUMBER_OF_BYTES

Audio
ID : 2
Format : AC-3
Format/Info : Audio Coding 3
Mode extension : CM (complete main)
Format settings, Endianness : Big
Codec ID : A_AC3
Duration : 2h 13mn
Bit rate mode : Constant
Bit rate : 224 Kbps
Channel(s) : 2 channels
Channel positions : Front: L R
Sampling rate : 48.0 KHz
Bit depth : 16 bits
Compression mode : Lossy
Delay relative to video : -5ms
Stream size : 214 MiB (3%)
Title : Stereo
Default : Yes
Forced : No
DURATION : 02:13:45.284000000
NUMBER_OF_FRAMES : 250810
NUMBER_OF_BYTES : 224725760
_STATISTICS_WRITING_APP : mkvmerge v8.1.0 (‘Psychedelic Postcard’) 64bit
_STATISTICS_WRITING_DATE_UT : 2015-07-08 03:00:55
_STATISTICS_TAGS : BPS DURATION NUMBER_OF_FRAMES NUMBER_OF_BYTES

Download:

mqs.linkEx.Frm.Explanet.1The.Lst.Planet.In.Japan.2015.part1.rar
mqs.linkEx.Frm.Explanet.1The.Lst.Planet.In.Japan.2015.part2.rar
mqs.linkEx.Frm.Explanet.1The.Lst.Planet.In.Japan.2015.part3.rar
mqs.linkEx.Frm.Explanet.1The.Lst.Planet.In.Japan.2015.part4.rar
mqs.linkEx.Frm.Explanet.1The.Lst.Planet.In.Japan.2015.part5.rar
mqs.linkEx.Frm.Explanet.1The.Lst.Planet.In.Japan.2015.part6.rar
mqs.linkEx.Frm.Explanet.1The.Lst.Planet.In.Japan.2015.part7.rar
mqs.linkEx.Frm.Explanet.1The.Lst.Planet.In.Japan.2015.part8.rar

Leave a Reply

Your email address will not be published. Required fields are marked *

This site uses Akismet to reduce spam. Learn how your comment data is processed.