YOASOBI – THE FILM [Blu-ray MKV] [2022.03.23]

YOASOBI初のライブ映像作品集! 完全生産限定の豪華仕様!

“小説を音楽にするユニット”YOASOBIのライブ映像作品集。2021年2月に新宿・ミラノ座跡地の工事現場にて開催した初の配信ワンマンライブ『KEEP OUT THEATER』。2021年7月に開催したユニクロ「UT」とのコラボレーションで実現し、同時接続者数28万人を記録したユニクロ有明本部内のUNIQLO CITY TOKYOでの配信ライブ『SING YOUR WORLD』。2021年12月に武道館2daysで開催した初の有観客ライブ『NICE TO MEET YOU』(2021年12月5日公演映像)の3本のライブを収録。更に、2021年12月12日(日)に放送されたドキュメンタリー番組『情熱大陸』(MBS・TBS系)の拡大版を収録。番組の取材が始まった2020年9月、初めてのライブを目指し、動き出した頃から、初の有観客ライブ実現にいたるまでの1年以上に渡る軌跡を映し出した番組本編から更に未公開映像を加えてこの映像作品の為に再編集された豪華拡大版。Bru-ray2枚組、特製バインダーにライブ写真を綴じ込んだ豪華パッケージ仕様。

【完全生産限定盤】2BD+特製バインダー仕様、ライブフォトブック

《収録内容》
◆YOASOBI 1st ONLINE LIVE 『KEEP OUT THEATER』
[開催日] 2021年2月14日(日)
[場所] 新宿ミラノ座ビル跡地
[セットリスト]
1.あの夢をなぞって
2.ハルジオン
3.たぶん
4.ハルカ
5.怪物
6.アンコール
7.夜に駆ける
8.群青

◆UT×YOASOBI ONLINE LIVE 『SING YOUR WORLD』
[開催日] 2021年7月4日(日)
[場所] ユニクロ有明本部・UNIQLO CITY TOKYO
[セットリスト]
1.三原色
2.ハルジオン
3.もう少しだけ
4.たぶん
5.怪物
6.アンコール
7.夜に駆ける
8.ハルカ (with 大阪桐蔭高校吹奏楽部)
9.群青 (with 大阪桐蔭高校吹奏楽部)

◆『NICE TO MEET YOU』
[開催日] 2021年12月4日(土)/12月5日(日) ※本映像作品は12月5日(日)公演を収録
[場所] 日本武道館
[セットリスト]
1.あの夢をなぞって
2.大正浪漫
3.ハルジオン
4.三原色
5.もう少しだけ
6.ハルカ
7.たぶん
8.もしも命が描けたら
9.夜に駆ける
10.怪物
11.優しい彗星
12.アンコール
13.ツバメ
14.群青
En1.ラブレター

[2021.02.14] YOASOBI KEEP OUT THEATER.mkv 10.57 GB
[2021.07.04] YOASOBI SING YOUR WORLD.mkv 10.08 GB
[2021.12.05] YOASOBI NICE TO MEET YOU.mkv 29.01 GB
JOUNETSU TAIRIKU x YOASOBI.mkv 13.25 GB

Ripped from the blu-rays using makeMKV, MediaInfo shown below:

KEEP OUT THEATER:
General
Unique ID : 178341975034194824336357887754692722078 (0x862B6A3DD47E0B2344EFEA7B202BFD9E)
Complete name : C:\Users\User\Videos\YOASOBI - THE FILM\[2021.02.14] YOASOBI - KEEP OUT THEATER.mkv
Format : Matroska
Format version : Version 2
File size : 10.6 GiB
Duration : 55 min 33 s
Overall bit rate mode : Variable
Overall bit rate : 27.2 Mb/s
Encoded date : UTC 2022-03-28 12:36:03
Writing application : MakeMKV v1.16.7 win(x64-release)
Writing library : libmakemkv v1.16.7 (1.3.10/1.5.2) win(x64-release)

Video
ID : 1
ID in the original source medium : 4113 (0x1011)
Format : AVC
Format/Info : Advanced Video Codec
Format profile : High@L4.1
Format settings : CABAC / 2 Ref Frames
Format settings, CABAC : Yes
Format settings, Reference frames : 2 frames
Format settings, GOP : M=1, N=10
Codec ID : V_MPEG4/ISO/AVC
Duration : 55 min 33 s
Bit rate mode : Variable
Bit rate : 24.9 Mb/s
Width : 1 920 pixels
Height : 1 080 pixels
Display aspect ratio : 16:9
Frame rate mode : Constant
Frame rate : 23.976 (24000/1001) FPS
Color space : YUV
Chroma subsampling : 4:2:0
Bit depth : 8 bits
Scan type : Progressive
Bits/(Pixel*Frame) : 0.501
Stream size : 9.67 GiB (92%)
Language : English
Default : No
Forced : No
Original source medium : Blu-ray

Audio
ID : 2
ID in the original source medium : 4352 (0x1100)
Format : PCM
Format settings : Little / Signed
Codec ID : A_PCM/INT/LIT
Duration : 55 min 33 s
Bit rate mode : Constant
Bit rate : 2 304 kb/s
Channel(s) : 2 channels
Sampling rate : 48.0 kHz
Frame rate : 30.000 FPS (1600 SPF)
Bit depth : 24 bits
Stream size : 916 MiB (8%)
Title : Stereo
Language : Japanese
Default : Yes
Forced : No
Original source medium : Blu-ray

Menu
00:00:00.000 : Intro
00:03:00.805 : Ano Yume Wo Nazotte
00:07:26.737 : Harujion
00:10:49.398 : MC 1
00:15:45.653 : Tabun
00:20:08.207 : Haruka
00:24:21.334 : MC 2
00:29:00.613 : Kaibutsu
00:32:46.714 : Epilogue
00:33:37.015 : Ankoru
00:38:14.041 : MC 3
00:43:16.594 : Yoru ni Kakeru
00:48:05.591 : Gunjo
00:52:12.546 : Credits

Download:

[2021.02.14]_YOASOBI_-_KEEP_OUT_THEATER.part1.rar
[2021.02.14]_YOASOBI_-_KEEP_OUT_THEATER.part2.rar
[2021.02.14]_YOASOBI_-_KEEP_OUT_THEATER.part3.rar
[2021.02.14]_YOASOBI_-_KEEP_OUT_THEATER.part4.rar
[2021.02.14]_YOASOBI_-_KEEP_OUT_THEATER.part5.rar
[2021.02.14]_YOASOBI_-_KEEP_OUT_THEATER.part6.rar

[2021.07.04]_YOASOBI_-_SING_YOUR_WORLD.part1.rar
[2021.07.04]_YOASOBI_-_SING_YOUR_WORLD.part2.rar
[2021.07.04]_YOASOBI_-_SING_YOUR_WORLD.part3.rar
[2021.07.04]_YOASOBI_-_SING_YOUR_WORLD.part4.rar
[2021.07.04]_YOASOBI_-_SING_YOUR_WORLD.part5.rar
[2021.07.04]_YOASOBI_-_SING_YOUR_WORLD.part6.rar

[2021.12.05]_YOASOBI_-_NICE_TO_MEET_YOU.part01.rar
[2021.12.05]_YOASOBI_-_NICE_TO_MEET_YOU.part02.rar
[2021.12.05]_YOASOBI_-_NICE_TO_MEET_YOU.part03.rar
[2021.12.05]_YOASOBI_-_NICE_TO_MEET_YOU.part04.rar
[2021.12.05]_YOASOBI_-_NICE_TO_MEET_YOU.part05.rar
[2021.12.05]_YOASOBI_-_NICE_TO_MEET_YOU.part06.rar
[2021.12.05]_YOASOBI_-_NICE_TO_MEET_YOU.part07.rar
[2021.12.05]_YOASOBI_-_NICE_TO_MEET_YOU.part08.rar
[2021.12.05]_YOASOBI_-_NICE_TO_MEET_YOU.part09.rar
[2021.12.05]_YOASOBI_-_NICE_TO_MEET_YOU.part10.rar
[2021.12.05]_YOASOBI_-_NICE_TO_MEET_YOU.part11.rar
[2021.12.05]_YOASOBI_-_NICE_TO_MEET_YOU.part12.rar
[2021.12.05]_YOASOBI_-_NICE_TO_MEET_YOU.part13.rar
[2021.12.05]_YOASOBI_-_NICE_TO_MEET_YOU.part14.rar
[2021.12.05]_YOASOBI_-_NICE_TO_MEET_YOU.part15.rar
[2021.12.05]_YOASOBI_-_NICE_TO_MEET_YOU.part16.rar

JOUNETSU_TAIRIKU_x_YOASOBI.part1.rar
JOUNETSU_TAIRIKU_x_YOASOBI.part2.rar
JOUNETSU_TAIRIKU_x_YOASOBI.part3.rar
JOUNETSU_TAIRIKU_x_YOASOBI.part4.rar
JOUNETSU_TAIRIKU_x_YOASOBI.part5.rar
JOUNETSU_TAIRIKU_x_YOASOBI.part6.rar
JOUNETSU_TAIRIKU_x_YOASOBI.part7.rar