Seiko Omori – Bakuretsu! Nana Chan to Iku love love Senno Tour – Nostalgic Nakano Sun Plaza 2015 1080p Bluray

1080p Rip Ver. features the final day of Seiko Omori’s “Nana-chan to Iku Love Love Senno Tour” held at Nakano SunPlaza.

Seiko.Omori.Bakuretsu.Nana.Chan.Nostalgic.Nakano.Sun.Plaza.2015.1080p.Bluray-AFFUL
x264 2h 26mn 4 256 Kbps 1920×1 066 pixels Constant 23.976 fps
AC-3 640 Kbps 2 channels 48.0 KHz Stereo Japanese
Chapter Included

伝説のライブが蘇る! 大森靖子のメジャーデビュー後、初全国ツアー”爆裂! ナナちゃんとイくラブラブ洗脳ツアー”ファイナル@中野サンプラザ公演の模様を収録。本秀康イラスト/ライブ写真両A面特大ポスター封入。

Blu-ray List
01. PINK
02. 秘めごと
03. 夏果て
04. デートはやめよう
05. 魔法が使えないなら
06. 絶対絶望絶好調
07. きゅるきゅる
08. イミテーションガール
09. ノスタルジック J-pop
10. あまい
11. エンドレスダンス
12. 子供じゃないもん 17
13. 君と映画
14. おまけ□~スーパーフリーポップ~
15. KITTY’S BLUES
16. キラキラ
17. 歌謡曲
18. さようなら
19. 呪いは水色
20. 絶対彼女
21. 少女3号
22. あたし天使の堪忍袋
23. 春の公園
24. 焼肉デート
25. 新宿
26. 音楽を捨てよ、 そして音楽へ
27. マジックミラー
28. ミッドナイト清純異性交遊

General
Format : Matroska
Format version : Version 2
File size : 5.01 GiB
Duration : 2h 26mn
Overall bit rate : 4 899 Kbps
Encoded date : UTC
Writing application : HandBrake 0.10.2 2015060900
Writing library : Lavf55.12.0

Video
ID : 1
Format : AVC
Format/Info : Advanced Video Codec
Format profile : High@L4.1
Format settings, CABAC : Yes
Format settings, ReFrames : 5 frames
Codec ID : V_MPEG4/ISO/AVC
Duration : 2h 26mn
Bit rate : 4 256 Kbps
Width : 1 920 pixels
Height : 1 066 pixels
Display aspect ratio : 16:9
Frame rate mode : Constant
Frame rate : 23.976 fps
Color space : YUV
Chroma subsampling : 4:2:0
Bit depth : 8 bits
Scan type : Progressive
Bits/(Pixel*Frame) : 0.087
Stream size : 4.26 GiB (85%)
Writing library : x264 core 142 r2479 dd79a61
Encoding settings : cabac=1 / ref=5 / deblock=1:0:0 / analyse=0x3:0x113 / me=umh / subme=8 / psy=1 / psy_rd=1.00:0.00 / mixed_ref=1 / me_range=16 / chroma_me=1 / trellis=1 / 8x8dct=1 / cqm=0 / deadzone=21,11 / fast_pskip=1 / chroma_qp_offset=-2 / threads=36 / lookahead_threads=6 / sliced_threads=0 / nr=0 / decimate=1 / interlaced=0 / bluray_compat=0 / constrained_intra=0 / bframes=3 / b_pyramid=2 / b_adapt=2 / b_bias=0 / direct=3 / weightb=1 / open_gop=0 / weightp=2 / keyint=240 / keyint_min=24 / scenecut=40 / intra_refresh=0 / rc_lookahead=50 / rc=2pass / mbtree=1 / bitrate=4256 / ratetol=1.0 / qcomp=0.60 / qpmin=0 / qpmax=69 / qpstep=4 / cplxblur=20.0 / qblur=0.5 / vbv_maxrate=62500 / vbv_bufsize=78125 / nal_hrd=none / filler=0 / ip_ratio=1.40 / aq=1:1.00
Default : Yes
Forced : No
Color range : Limited
Color primaries : BT.709
Transfer characteristics : BT.709
Matrix coefficients : BT.709

Audio
ID : 2
Format : AC-3
Format/Info : Audio Coding 3
Mode extension : CM (complete main)
Format settings, Endianness : Big
Codec ID : A_AC3
Duration : 2h 26mn
Bit rate mode : Constant
Bit rate : 640 Kbps
Channel(s) : 2 channels
Channel positions : Front: L R
Sampling rate : 48.0 KHz
Compression mode : Lossy
Delay relative to video : 27ms
Stream size : 670 MiB (13%)
Title : Stereo
Language : Japanese
Default : Yes
Forced : No

Menu
00:00:00.000 : :Chapter 1
00:03:34.297 : :Chapter 2
00:06:22.006 : :Chapter 3
00:08:40.937 : :Chapter 4
00:12:17.778 : :Chapter 5
00:15:04.778 : :Chapter 6
00:17:36.096 : :Chapter 7
00:21:01.426 : :Chapter 8
00:24:17.539 : :Chapter 9
00:28:47.809 : :Chapter 10
00:33:11.030 : :Chapter 11
00:35:09.023 : :Chapter 12
00:40:11.033 : :Chapter 13
00:44:08.687 : :Chapter 14
00:48:05.966 : :Chapter 15
00:51:23.163 : :Chapter 16
00:59:54.674 : :Chapter 17
01:06:02.583 : :Chapter 18
01:07:55.154 : :Chapter 19
01:12:27.426 : :Chapter 20
01:15:17.596 : :Chapter 21
01:19:32.642 : :Chapter 22
01:23:50.108 : :Chapter 23
01:27:07.722 : :Chapter 24
01:30:13.282 : :Chapter 25
01:34:16.734 : :Chapter 26
01:37:09.907 : :Chapter 27
01:41:17.112 : :Chapter 28
01:45:25.402 : :Chapter 29
01:46:44.439 : :Chapter 30
02:01:55.391 : :Chapter 31
02:05:29.814 : :Chapter 32
02:10:35.911 : :Chapter 33
02:12:12.007 : :Chapter 34
02:18:01.439 : :Chapter 35
02:20:23.289 : :Chapter 36
02:24:45.843 : :Chapter 37

Download:

mqs.linkAVXD92252.1080p.AFFUL.part1.rar
mqs.linkAVXD92252.1080p.AFFUL.part2.rar
mqs.linkAVXD92252.1080p.AFFUL.part3.rar
mqs.linkAVXD92252.1080p.AFFUL.part4.rar
mqs.linkAVXD92252.1080p.AFFUL.part5.rar
mqs.linkAVXD92252.1080p.AFFUL.part6.rar

Leave a Reply

Your email address will not be published. Required fields are marked *

This site uses Akismet to reduce spam. Learn how your comment data is processed.