Dempagumi.inc – WWD Daibouken Tour 2015 -Kono Sekai wa Mada Shiranai Koto Bakari- in TOKYO DOME CITY HALL 2015 1080p Bluray

Here’s Rip 1080p from original Bluray ISO release features the final day of “WWD Dai Boken Tour 2015 – Kono Sekai wa Mada Shiranai Koto Bakari -” held on May 6, 2015 at Tokyo Dome City Hall.

Dempagumi.inc.WWD.Daibouken.Tour.2015-Kono.Sekai.wa.Mada.Shiranai.Koto.Bakari-in.TOKYO.DOME.CITY.HALL.2015.1080p.Bluray-AFFUL
x264 2h 1mn 4256 Kbps 1920×1080 pixels 23.976 fps
AC-3 Constant 640 Kbps 2 channels 48.0 KHz Japanese

(でんぱ組.inc – WWD大冒険TOUR2015 ~この世界はまだ知らないことばかり~ in TOKYO DOME CITY HALL)
1. でんぱーりーナイト
2. W.W.D
3. ダンス ダンス ダンス
4. NEO JAPONISM
5. Future Diver
6. FD2 ~レゾンデートル大冒険~
7. サクラあっぱれーしょん
8. ソーリー、ロンリー。
9. Promise of the World ~我コソ世界ノ救世主~
10. あのね…実はわたし、夢眠ねむなんだ…□
11. トキメキ☆すちゃらかテキサス
12. ニューロマンティック
13. P and A
14. Dear☆Stageへようこそ□
15. まもなく、でんぱ組.incが離陸致します□
16. ファンシーほっぺ□ウ・フ・フ
17. イロドリセカイ
18. ブランニューワールド
19. キラキラチューン
20. バリ3共和国
21. ちゅるりちゅるりら
22. でんでんぱっしょん
23. 檸檬色
24. イツカ、ハルカカナタ
25. でんぱれーどJAPAN

General
Format : Matroska
Format version : Version 2
File size : 4.15 GiB
Duration : 2h 1mn
Overall bit rate : 4 899 Kbps
Encoded date : UTC
Writing application : HandBrake 0.10.2 2015060900
Writing library : Lavf55.12.0

Video
ID : 1
Format : AVC
Format/Info : Advanced Video Codec
Format profile : High@L4.1
Format settings, CABAC : Yes
Format settings, ReFrames : 5 frames
Codec ID : V_MPEG4/ISO/AVC
Duration : 2h 1mn
Bit rate : 4 256 Kbps
Width : 1 920 pixels
Height : 1 080 pixels
Display aspect ratio : 16:9
Frame rate mode : Constant
Frame rate : 23.976 fps
Color space : YUV
Chroma subsampling : 4:2:0
Bit depth : 8 bits
Scan type : Progressive
Bits/(Pixel*Frame) : 0.086
Stream size : 3.52 GiB (85%)
Writing library : x264 core 142 r2479 dd79a61
Encoding settings : cabac=1 / ref=5 / deblock=1:-1:-1 / analyse=0x3:0x113 / me=umh / subme=8 / psy=1 / psy_rd=1.00:0.15 / mixed_ref=1 / me_range=16 / chroma_me=1 / trellis=1 / 8x8dct=1 / cqm=0 / deadzone=21,11 / fast_pskip=1 / chroma_qp_offset=-3 / threads=36 / lookahead_threads=6 / sliced_threads=0 / nr=0 / decimate=1 / interlaced=0 / bluray_compat=0 / constrained_intra=0 / bframes=3 / b_pyramid=2 / b_adapt=2 / b_bias=0 / direct=3 / weightb=1 / open_gop=0 / weightp=2 / keyint=240 / keyint_min=24 / scenecut=40 / intra_refresh=0 / rc_lookahead=50 / rc=2pass / mbtree=1 / bitrate=4256 / ratetol=1.0 / qcomp=0.60 / qpmin=0 / qpmax=69 / qpstep=4 / cplxblur=20.0 / qblur=0.5 / vbv_maxrate=62500 / vbv_bufsize=78125 / nal_hrd=none / filler=0 / ip_ratio=1.40 / aq=1:1.00
Default : Yes
Forced : No
Color range : Limited
Color primaries : BT.709
Transfer characteristics : BT.709
Matrix coefficients : BT.709

Audio
ID : 2
Format : AC-3
Format/Info : Audio Coding 3
Mode extension : CM (complete main)
Format settings, Endianness : Big
Codec ID : A_AC3
Duration : 2h 1mn
Bit rate mode : Constant
Bit rate : 640 Kbps
Channel(s) : 2 channels
Channel positions : Front: L R
Sampling rate : 48.0 KHz
Compression mode : Lossy
Delay relative to video : 27ms
Stream size : 555 MiB (13%)
Title : Stereo
Language : Japanese
Default : Yes
Forced : No

Menu
00:00:00.000 : :Chapter 1
00:01:07.192 : :Chapter 2
00:05:58.483 : :Chapter 3
00:11:42.827 : :Chapter 4
00:17:11.155 : :Chapter 5
00:21:30.414 : :Chapter 6
00:26:23.707 : :Chapter 7
00:30:58.982 : :Chapter 8
00:35:25.248 : :Chapter 9
00:39:56.519 : :Chapter 10
00:42:18.661 : :Chapter 11
00:44:45.808 : :Chapter 12
00:46:22.905 : :Chapter 13
00:48:26.028 : :Chapter 14
00:50:54.176 : :Chapter 15
00:53:23.325 : :Chapter 16
00:58:59.661 : :Chapter 17
01:02:59.901 : :Chapter 18
01:06:44.125 : :Chapter 19
01:12:09.450 : :Chapter 20
01:16:49.730 : :Chapter 21
01:17:36.777 : :Chapter 22
01:21:44.024 : :Chapter 23
01:26:34.314 : :Chapter 24
01:30:13.533 : :Chapter 25
01:31:00.580 : :Chapter 26
01:35:11.831 : :Chapter 27
01:39:22.081 : :Chapter 28
01:39:53.112 : :Chapter 29
01:40:29.148 : :Chapter 30
01:45:09.428 : :Chapter 31
01:49:40.699 : :Chapter 32
01:50:06.725 : :Chapter 33
01:54:22.981 : :Chapter 34
01:56:38.116 : :Chapter 35

Download:

mqs.linkDEMPATUR2015FINAL2.part1.rar
mqs.linkDEMPATUR2015FINAL2.part2.rar
mqs.linkDEMPATUR2015FINAL2.part3.rar
mqs.linkDEMPATUR2015FINAL2.part4.rar
mqs.link_DEMPATUR2015FINAL2.part5.rar

Leave a Reply

Your email address will not be published. Required fields are marked *

This site uses Akismet to reduce spam. Learn how your comment data is processed.