Bob Dylan – Street-Legal (1978) [SACD 2003] {SACD ISO + FLAC 24bit/88.2kHz}

Bob Dylan – Street-Legal (1978) [SACD 2003]
PS3 Rip | ISO | SACD DSD64 2.0 > 1-bit/2.8224 MHz | 50:11 minutes | Scans included | 2,02 GB
or FLAC 2.0 Stereo (converted with foobar2000 to tracks) | 24 bit/88,2 kHz | Scans | 0,99 GB

Tracklist:
01. Changing Of The Guards
02. New Pony
03. No Time To Think
04. Baby, Stop Crying
05. Is Your Love In Vain?
06. Señor (Tales Of Yankee Power)
07. True Love Tends To Forget
08. We Better Talk This Over
09. Where Are You Tonight? (Journey Through Dark Heat)

 

foobar2000 1.1.15 / Dynamic Range Meter 1.1.1
--------------------------------------------------------------------------------
Analyzed: Bob Dylan / Street-Legal
--------------------------------------------------------------------------------
DR Peak RMS Duration Track
--------------------------------------------------------------------------------
DR9 -5.95 dB -15.66 dB 7:03 01-Changing Of The Guards
DR8 -5.97 dB -15.34 dB 4:39 02-New Pony
DR9 -5.98 dB -16.55 dB 8:21 03-No Time To Think
DR9 -6.02 dB -16.75 dB 5:20 04-Baby, Stop Crying
DR9 -6.02 dB -15.63 dB 4:32 05-Is Your Love In Vain?
DR8 -5.99 dB -15.59 dB 5:42 06-Señor (Tales Of Yankee Power)
DR9 -6.00 dB -16.73 dB 4:14 07-True Love Tends To Forget
DR8 -5.96 dB -15.19 dB 4:04 08-We Better Talk This Over
DR8 -5.95 dB -15.83 dB 6:16 09-Where Are You Tonight? (Journey Through Dark Heat)
--------------------------------------------------------------------------------
Number of tracks: 9
Official DR value: DR8
Samplerate: 2822400 Hz / PCM Samplerate: 88200 Hz
Channels: 2
Bits per sample: 24
Bitrate: 5645 kbps
Codec: DSD64

SACD ISO

https://filejoker.net/gpp05ahm5324/BobD_1978StreetLegalCH903382003RemasterSACDIS.part1.rar
https://filejoker.net/4fo3kzha0nrt/BobD_1978StreetLegalCH903382003RemasterSACDIS.part2.rar
https://filejoker.net/wl1yaz7z5ftc/BobD_1978StreetLegalCH903382003RemasterSACDIS.part3.rar

FLAC 24-88.2

https://filejoker.net/9witmxazosyg/BobD_1978StreetLegalCH903382003RemasterFLAC2488.2.part1.rar
https://filejoker.net/nq91cl1mf83s/BobD_1978StreetLegalCH903382003RemasterFLAC2488.2.part2.rar

Leave a Reply

Your email address will not be published. Required fields are marked *

This site uses Akismet to reduce spam. Learn how your comment data is processed.