Bob Dylan – Slow Train Coming (1979) [SACD 2003] {SACD ISO + FLAC 24bit/88.2kHz}

Bob Dylan – Slow Train Coming (1979) [SACD 2003]
PS3 Rip | ISO | SACD DST64 2.0 & 5.1 > 1-bit/2.8224 MHz | 47:03 minutes | Scans included | 2,81 GB
or FLAC 2.0 Stereo (converted with foobar2000 to tracks) 24bit/88,2 kHz | 46:41 mins | Scans | 906 MB

Tracklist:
01. Gotta Serve Somebody
02. Precious Angel
03. I Believe In You
04. Slow Train
05. Gonna Change My Way Of Thinking
06. Do Right To Me Baby (Do Unto Others)
07. When You Gonna Wake Up
08. Man Gave Names To All The Animals
09. When He Returns

 

foobar2000 1.1.15 / Dynamic Range Meter 1.1.1
--------------------------------------------------------------------------------
Analyzed: Bob Dylan / Slow Train Coming
--------------------------------------------------------------------------------
DR Peak RMS Duration Track
--------------------------------------------------------------------------------
DR14 -7.90 dB -24.72 dB 5:25 01-Gotta Serve Somebody
DR14 -6.05 dB -24.19 dB 6:34 02-Precious Angel
DR14 -6.08 dB -25.80 dB 5:11 03-I Believe In You
DR15 -6.03 dB -23.93 dB 6:02 04-Slow Train
DR14 -6.06 dB -23.74 dB 5:28 05-Gonna Change My Way Of Thinking
DR13 -6.01 dB -25.20 dB 3:54 06-Do Right To Me Baby (Do Unto Others)
DR15 -6.01 dB -24.59 dB 5:30 07-When You Gonna Wake Up
DR14 -6.06 dB -25.60 dB 4:26 08-Man Gave Names To All The Animals
DR13 -7.43 dB -28.08 dB 4:34 09-When He Returns
--------------------------------------------------------------------------------
Number of tracks: 9
Official DR value: DR14
Samplerate: 2822400 Hz / PCM Samplerate: 88200 Hz
Channels: 6
Bits per sample: 24
Bitrate: 16934 kbps
Codec: DST64
================================================================================
--------------------------------------------------------------------------------
Analyzed: Bob Dylan / Slow Train Coming
--------------------------------------------------------------------------------
DR Peak RMS Duration Track
--------------------------------------------------------------------------------
DR12 -6.02 dB -20.73 dB 5:23 01-Gotta Serve Somebody
DR11 -6.02 dB -19.06 dB 6:30 02-Precious Angel
DR11 -6.02 dB -21.20 dB 5:09 03-I Believe In You
DR10 -5.99 dB -17.93 dB 5:57 04-Slow Train
DR12 -6.01 dB -19.39 dB 5:27 05-Gonna Change My Way Of Thinking
DR12 -5.94 dB -20.04 dB 3:54 06-Do Right To Me Baby (Do Unto Others)
DR12 -6.03 dB -19.64 dB 5:29 07-When You Gonna Wake Up
DR14 -6.02 dB -21.65 dB 4:26 08-Man Gave Names To All The Animals
DR12 -6.02 dB -22.47 dB 4:27 09-When He Returns
--------------------------------------------------------------------------------
Number of tracks: 9
Official DR value: DR12
Samplerate: 2822400 Hz / PCM Samplerate: 88200 Hz
Channels: 2
Bits per sample: 24
Bitrate: 5645 kbps
Codec: DST64

SACD ISO

https://filejoker.net/at5apty0v61p/BobD_1979SlwTrainCmingCH903222003RemasterSACDIS.part1.rar
https://filejoker.net/cw2zwutb9jem/BobD_1979SlwTrainCmingCH903222003RemasterSACDIS.part2.rar
https://filejoker.net/yc2q812xpzrw/BobD_1979SlwTrainCmingCH903222003RemasterSACDIS.part3.rar

FLAC 24-88.2

https://filejoker.net/1pe58ifkz65d/BobD_1979SlwTrainCmingCH903222003RemasterFLAC2488.2.rar

Leave a Reply

Your email address will not be published. Required fields are marked *

This site uses Akismet to reduce spam. Learn how your comment data is processed.