Bob Dylan – Love And Theft (2001) [SACD 2003] {SACD ISO + FLAC 24bit/88.2kHz}

Bob Dylan – Love And Theft (2001) [SACD 2003]
PS3 Rip | ISO | SACD DST64 2.0 & 5.1 > 1-bit/2.8224 MHz | 57:37 minutes | Scans included | 3,5 GB
or FLAC 2.0 Stereo (converted with foobar2000 to tracks) 24bit/88,2 kHz | 57:30 mins | Scans | 1,12 GB

Tracklist:
01. Tweedle Dee & Tweedle Dum
02. Mississippi
03. Summer Days
04. Bye And Bye
05. Lonesome Day Blues
06. Floater (Too Much To Ask)
07. High Water (For Charley Patton)
08. Moonlight
09. Honest With Me
10. Po’ Boy
11. Cry A While
12. Sugar Baby

foobar2000 1.1.15 / Dynamic Range Meter 1.1.1
--------------------------------------------------------------------------------
Analyzed: Bob Dylan / Love And Theft
--------------------------------------------------------------------------------
DR Peak RMS Duration Track
--------------------------------------------------------------------------------
DR15 -6.07 dB -22.45 dB 4:47 01-Tweedle Dee & Tweedle Dum
DR12 -6.03 dB -22.27 dB 5:21 02-Mississippi
DR13 -6.03 dB -22.42 dB 4:53 03-Summer Days
DR14 -6.06 dB -23.43 dB 3:19 04-Bye And Bye
DR13 -6.05 dB -21.20 dB 6:04 05-Lonesome Day Blues
DR12 -6.06 dB -22.91 dB 4:58 06-Floater (Too Much To Ask)
DR15 -6.08 dB -26.11 dB 4:03 07-High Water (For Charley Patton)
DR13 -6.04 dB -21.46 dB 3:27 08-Moonlight
DR12 -6.04 dB -21.65 dB 5:50 09-Honest With Me
DR13 -6.08 dB -23.01 dB 3:08 10-Po' Boy
DR14 -6.07 dB -21.94 dB 5:04 11-Cry A While
DR12 -6.07 dB -23.47 dB 6:43 12-Sugar Baby
--------------------------------------------------------------------------------
Number of tracks: 12
Official DR value: DR13
Samplerate: 2822400 Hz / PCM Samplerate: 88200 Hz
Channels: 6
Bits per sample: 24
Bitrate: 16934 kbps
Codec: DST64
================================================================================
--------------------------------------------------------------------------------
Analyzed: Bob Dylan / Love And Theft
--------------------------------------------------------------------------------
DR Peak RMS Duration Track
--------------------------------------------------------------------------------
DR11 -6.05 dB -18.42 dB 4:46 01-Tweedle Dee & Tweedle Dum
DR11 -6.05 dB -18.16 dB 5:21 02-Mississippi
DR12 -6.05 dB -19.48 dB 4:53 03-Summer Days
DR12 -6.08 dB -19.99 dB 3:16 04-Bye And Bye
DR12 -6.04 dB -18.93 dB 6:05 05-Lonesome Day Blues
DR12 -6.06 dB -18.89 dB 5:00 06-Floater (Too Much To Ask)
DR13 -6.07 dB -20.58 dB 4:03 07-High Water (For Charley Patton)
DR11 -6.08 dB -18.59 dB 3:24 08-Moonlight
DR12 -6.07 dB -18.39 dB 5:48 09-Honest With Me
DR12 -6.08 dB -19.61 dB 3:08 10-Po' Boy
DR13 -6.06 dB -19.78 dB 5:04 11-Cry A While
DR12 -6.07 dB -19.57 dB 6:41 12-Sugar Baby
--------------------------------------------------------------------------------
Number of tracks: 12
Official DR value: DR12
Samplerate: 2822400 Hz / PCM Samplerate: 88200 Hz
Channels: 2
Bits per sample: 24
Bitrate: 5645 kbps
Codec: DST64

SACD ISO

BobD2001LveAndTheftCH903402003RemasterSACDIS.part1.rar
BobD2001LveAndTheftCH903402003RemasterSACDIS.part2.rar
BobD2001LveAndTheftCH903402003RemasterSACDIS.part3.rar
BobD2001LveAndTheftCH903402003RemasterSACDIS.part4.rar

FLAC 24-88.2

BobD2001LveAndTheftCH903402003RemasterFLAC2488.2.part1.rar
BobD2001LveAndTheftCH903402003RemasterFLAC2488.2.part2.rar

Leave a Reply

Your email address will not be published. Required fields are marked *

This site uses Akismet to reduce spam. Learn how your comment data is processed.