Bob Dylan – John Wesley Harding (1967) [SACD 2003] {SACD ISO + FLAC 24bit/88.2kHz}

Bob Dylan – John Wesley Harding (1967) [SACD 2003]
PS3 Rip | ISO | SACD DSD64 2.0 > 1-bit/2.8224 MHz | 38:17 minutes | Scans included | 1,56 GB
or FLAC 2.0 Stereo (converted with foobar2000 to tracks) | 24 bit/88,2 kHz | Scans | 718 MB

Tracklist:
01. John Wesley Harding
02. As I Went Out One Morning
03. I Dreamed I Saw St. Augustine
04. All Along The Watchtower
05. The Ballad Of Frankie Lee And Judas Priest
06. Drifter’s Escape
07. Dear Landlord
08. I Am A Lonesome Hobo
09. I Pity The Poor Immigrant
10. The Wicked Messenger
11. Down Along The Cove
12. I’ll Be Your Baby Tonight

 

foobar2000 1.1.15 / Dynamic Range Meter 1.1.1
--------------------------------------------------------------------------------
Analyzed: Bob Dylan / John Wesley Harding
--------------------------------------------------------------------------------
DR Peak RMS Duration Track
--------------------------------------------------------------------------------
DR11 -4.61 dB -19.44 dB 2:57 01-John Wesley Harding
DR13 -4.87 dB -22.16 dB 2:49 02-As I Went Out One Morning
DR14 -5.57 dB -21.98 dB 3:52 03-I Dreamed I Saw St. Augustine
DR12 -7.22 dB -21.48 dB 2:31 04-All Along The Watchtower
DR13 -7.61 dB -22.45 dB 5:33 05-The Ballad Of Frankie Lee And Judas Priest
DR13 -7.05 dB -22.15 dB 2:46 06-Drifter's Escape
DR13 -5.70 dB -23.52 dB 3:15 07-Dear Landlord
DR12 -5.85 dB -21.90 dB 3:20 08-I Am A Lonesome Hobo
DR12 -8.42 dB -23.21 dB 4:13 09-I Pity The Poor Immigrant
DR12 -4.71 dB -19.67 dB 2:02 10-The Wicked Messenger
DR13 -4.04 dB -20.90 dB 2:20 11-Down Along The Cove
DR14 -6.31 dB -23.91 dB 2:38 12-I'll Be Your Baby Tonight
--------------------------------------------------------------------------------
Number of tracks: 12
Official DR value: DR13
Samplerate: 2822400 Hz / PCM Samplerate: 88200 Hz
Channels: 2
Bits per sample: 24
Bitrate: 5645 kbps
Codec: DSD64

SACD ISO

https://filejoker.net/yzm4ibyn0x8n/BobD_1967JhnWesleyHardingCH903202003RemasterSACDIS.part1.rar
https://filejoker.net/bbm0jnuwusxs/BobD_1967JhnWesleyHardingCH903202003RemasterSACDIS.part2.rar

FLAC 24-88.2

https://filejoker.net/hvo1bwg01eu7/BobD_1967JhnWesleyHardingCH903202003RemasterFLAC2488.2.rar

Leave a Reply

Your email address will not be published.

This site uses Akismet to reduce spam. Learn how your comment data is processed.