BoA – BETTER [MP4 2160p / WEB / Bugs]

Bugs! version, 1.25 GB

General
Complete name : D:\MVs\BoA - Better [Bugs! 4K].mp4
Format : MPEG-4
Format profile : Base Media / Version 2
Codec ID : mp42 (mp42/mp41)
File size : 1.25 GiB
Duration : 3 min 33 s
Overall bit rate mode : Variable
Overall bit rate : 50.3 Mb/s
Encoded date : UTC 2020-12-01 07:53:10
Tagged date : UTC 2020-12-01 07:55:34
TIM : 00:00:00:00
TSC : 24000
TSZ : 1001

Video
ID : 1
Format : AVC
Format/Info : Advanced Video Codec
Format profile : Main@L5.1
Format settings : CABAC / 2 Ref Frames
Format settings, CABAC : Yes
Format settings, Reference frames : 2 frames
Codec ID : avc1
Codec ID/Info : Advanced Video Coding
Duration : 3 min 33 s
Bit rate mode : Variable
Bit rate : 49.9 Mb/s
Maximum bit rate : 768 kb/s
Width : 3 840 pixels
Height : 2 160 pixels
Display aspect ratio : 16:9
Frame rate mode : Constant
Frame rate : 23.976 (24000/1001) FPS
Color space : YUV
Chroma subsampling : 4:2:0
Bit depth : 8 bits
Scan type : Progressive
Bits/(Pixel*Frame) : 0.251
Stream size : 1.24 GiB (99%)
Language : English
Encoded date : UTC 2020-12-01 07:53:10
Tagged date : UTC 2020-12-01 07:53:10
Color range : Limited
Color primaries : BT.709
Transfer characteristics : BT.709
Matrix coefficients : BT.709
Codec configuration box : avcC

Audio
ID : 2
Format : AAC LC
Format/Info : Advanced Audio Codec Low Complexity
Codec ID : mp4a-40-2
Duration : 3 min 33 s
Source duration : 3 min 33 s
Bit rate mode : Variable
Bit rate : 317 kb/s
Maximum bit rate : 462 kb/s
Channel(s) : 2 channels
Channel layout : L R
Sampling rate : 48.0 kHz
Frame rate : 46.875 FPS (1024 SPF)
Compression mode : Lossy
Stream size : 8.07 MiB (1%)
Source stream size : 8.07 MiB (1%)
Language : English
Encoded date : UTC 2020-12-01 07:53:10
Tagged date : UTC 2020-12-01 07:53:10

WEB 2160p

jpop.xyz_BABetterBugs4K.part1.rar
jpop.xyz_BABetterBugs4K.part2.rar