Ayumi Hamasaki – Prenium Countdown Live A 2008-2009 Blu-ray 720p DTS x264-CHD

2008年大晦日に国立代々木競技場第一体育館で、浜崎あゆみ自身最長となる3時間半にわたって開催されたカウントダウンライブ。過去10年間にライブでは歌われることのなかった曲や、ファンの間で絶大な人気を誇るアルバム曲などレア曲が満載。

Tracklist:

  1. GREEN
  2. Will
  3. vogue
  4. HONEY
  5. ANGEL’S SONG
  6. End of the World
  7. Heartplace
  8. Real me
  9. And Then
  10. Naturally
  11. In The Corner
  12. POWDER SNOW
  13. HOPE or PAIN
  14. Over
  15. SCAR
  16. SIGNAL
  17. Hana
  18. too late
  19. UNITE!
  20. SURREAL|evolution|SURREAL
  21. Who…
  22. Trauma
  23. independent
  24. everywhere nowhere
  25. Mirrorcle World
  26. Days
  27. For My Dear…
  28. +
  29. flower garden
  30. Boys & Girls
  31. MY ALL

General
Complete name : Ayumi Hamasaki – Countdown Live A 2008-2009.mkv
Format : Matroska
Format version : Version 2
File size : 10.9 GiB
Duration : 3h 18mn
Overall bit rate : 7 902 Kbps
Encoded date : UTC 2011-08-10 13:50:07
Writing application : mkvmerge v3.3.0 (‘Language’) 编译于 Mar 24 2010 14:59:24
Writing library : libebml v0.8.0 + libmatroska v0.9.0

Video
ID : 1
Format : AVC
Format/Info : Advanced Video Codec
Format profile : High@L4.1
Format settings, CABAC : Yes
Format settings, ReFrames : 9 frames
Codec ID : V_MPEG4/ISO/AVC
Duration : 3h 18mn
Bit rate : 6 199 Kbps
Width : 1 280 pixels
Height : 724 pixels
Display aspect ratio : 16:9
Frame rate mode : Constant
Frame rate : 29.970 fps
Color space : YUV
Chroma subsampling : 4:2:0
Bit depth : 8 bits
Scan type : Progressive
Bits/(Pixel*Frame) : 0.223
Stream size : 8.37 GiB (76%)
Writing library : x264 core 116 r2044 392e762
Encoding settings : cabac=1 / ref=9 / deblock=1:-3:-3 / analyse=0x3:0x113 / me=umh / subme=9 / psy=1 / psy_rd=1.05:0.10 / mixed_ref=1 / me_range=32 / chroma_me=1 / trellis=2 / 8x8dct=1 / cqm=2 / deadzone=21,11 / fast_pskip=0 / chroma_qp_offset=-2 / threads=9 / sliced_threads=0 / nr=0 / decimate=1 / interlaced=0 / bluray_compat=0 / constrained_intra=0 / bframes=6 / b_pyramid=2 / b_adapt=2 / b_bias=0 / direct=3 / weightb=1 / open_gop=0 / weightp=2 / keyint=250 / keyint_min=25 / scenecut=40 / intra_refresh=0 / rc_lookahead=40 / rc=2pass / mbtree=1 / bitrate=6199 / ratetol=1.0 / qcomp=0.60 / qpmin=1 / qpmax=63 / qpstep=4 / cplxblur=20.0 / qblur=0.5 / vbv_maxrate=40000 / vbv_bufsize=30000 / nal_hrd=none / ip_ratio=1.40 / aq=1:0.80
Language : English
Default : No
Forced : No

Audio #1
ID : 2
Format : DTS
Format/Info : Digital Theater Systems
Mode : 16
Format settings, Endianness : Big
Codec ID : A_DTS
Duration : 3h 18mn
Bit rate mode : Constant
Bit rate : 1 509 Kbps
Channel(s) : 6 channels
Channel positions : Front: L C R, Side: L R, LFE
Sampling rate : 48.0 KHz
Bit depth : 24 bits
Compression mode : Lossy
Stream size : 2.09 GiB (19%)
Language : Japanese
Default : Yes
Forced : No

Audio #2
ID : 3
Format : AC-3
Format/Info : Audio Coding 3
Mode extension : CM (complete main)
Format settings, Endianness : Big
Codec ID : A_AC3
Duration : 3h 18mn
Bit rate mode : Constant
Bit rate : 192 Kbps
Channel(s) : 2 channels
Channel positions : Front: L R
Sampling rate : 48.0 KHz
Bit depth : 16 bits
Compression mode : Lossy
Stream size : 272 MiB (2%)
Language : Japanese
Default : No
Forced : No

Download:

https://filejoker.net/jq7ysuygkf2y/AyumHamasak-CountdownLiveA.2008-2009.part01.rar
https://filejoker.net/ftbg5rrfhljg/AyumHamasak-CountdownLiveA.2008-2009.part02.rar
https://filejoker.net/tw39amxma85t/AyumHamasak-CountdownLiveA.2008-2009.part03.rar
https://filejoker.net/5nrq5vywo7br/AyumHamasak-CountdownLiveA.2008-2009.part04.rar
https://filejoker.net/wa76tp6pzjmc/AyumHamasak-CountdownLiveA.2008-2009.part05.rar
https://filejoker.net/ik8ubj6ig1h8/AyumHamasak-CountdownLiveA.2008-2009.part06.rar
https://filejoker.net/2zr5yyu4n4g7/AyumHamasak-CountdownLiveA.2008-2009.part07.rar
https://filejoker.net/wsn59e4o0gkp/AyumHamasak-CountdownLiveA.2008-2009.part08.rar
https://filejoker.net/ll1424bns3cm/AyumHamasak-CountdownLiveA.2008-2009.part09.rar
https://filejoker.net/nyi3sp63cq92/AyumHamasak-CountdownLiveA.2008-2009.part10.rar
https://filejoker.net/2hhzk5qbcusp/AyumHamasak-CountdownLiveA.2008-2009.part11.rar
https://filejoker.net/w3u3ywffo6x1/AyumHamasak-CountdownLiveA.2008-2009.part12.rar

Leave a Reply

Your email address will not be published. Required fields are marked *

This site uses Akismet to reduce spam. Learn how your comment data is processed.