30th Seoul Music Awards 210131 1080i IPTV H264-HeaD

* SK Broadband IPTV
* Part 1 & 2
* CF’s removed

30th.Seoul.Music.Awards.210131.1080i.IPTV.H264 HeaD.ts 19.52 GB

The 30th High1 Seoul Music Awards

<Lineup/Cue Sheet>

Once In A Lifetime – Hyunjae (The Boyz), Eunbi (IZ*ONE), Jongho (ATEEZ), Lia (ITZY), Seunghee (OH MY GIRL), Seungmin (Stray Kids)
Award – TWICE
Award – SEVENTEEN
Award – Stray Kids
Award – Kang Daniel
Intro + Back Door – Stray Kids
[VCR Award] – Jessi, Sandeul, Cho Jung Seok, Lim Young Woong, Leenalchi
You Know Who I Am? – LEENALCHI
STAR + NUNU NANA – Jessi
[VCR Award] – (G)I-dle, The Boyz, Itzy, Treasure, aespa, Enhyphen
Intro + The Stealer – The Boyz
WANNABE + Not Shy – ITZY
Award – TXT
Award – IZ*ONE
Award – ATEEZ
[VCR Award] – BTS
Black Mamba – aespa
Given-Taken – ENHYPHEN
SLOWMOTION + I LOVE YOU + MY TREASURE – TREASURE
[VCR Award] – BTS
2U + Who U Are – Kang Daniel
Really Like You + Intro + Sequence + Panorama + Slow Journey – IZ*ONE
HWAA – (G)I-DLE
Award – NU’EST
Award – OH MY GIRL
[VCR Award] – NCT 127
Award – MONSTA X
From the new world (Utopia + Inception) – ATEEZ
We Lost The Summer + Blue Hour – TXT
Secret Garden + Remember Me + Dolphin + Nonstop – OH MY GIRL
[VCR Award] – Kang Daniel, BTS
이제 나만 믿어요 – Lim Young Woong
I’m in Trouble + Moon Dance + DRIVE – NU’EST
Last Carnival + Night View + Gasoline + Love Killa – MONSTA X
[VCR Award] – BTS, Lim Young Woong
MORE & MORE + I CAN’T STOP ME – TWICE
Fallin’ Flower + All My Love + HOME;RUN – SEVENTEEN
[VCR Award, Grand Award] – BTS

☆ MC Shin Dongyeob, Choi Sooyoung, Kim Heechul ☆

https://i1.wp.com/mqs.link/wp-content/uploads/2021/02/Z1IdUDB.jpg?resize=500%2C281&ssl=1
https://i0.wp.com/mqs.link/wp-content/uploads/2021/02/L06I3BL.jpg?resize=500%2C281&ssl=1
https://i2.wp.com/mqs.link/wp-content/uploads/2021/02/0gAvBs9.jpg?resize=500%2C281&ssl=1
https://i2.wp.com/mqs.link/wp-content/uploads/2021/02/P1X13Oa.jpg?resize=500%2C281&ssl=1
https://i2.wp.com/mqs.link/wp-content/uploads/2021/02/xgjz2mi.jpg?resize=500%2C281&ssl=1

General
ID : 1 (0x1)
Complete name : 30th.Seoul.Music.Awards.210131.1080i.IPTV.H264-HeaD.ts
Format : MPEG-TS
File size : 19.5 GiB
Duration : 3 h 38 min
Overall bit rate mode : Variable
Overall bit rate : 12.8 Mb/s

Video
ID : 256 (0x100)
Menu ID : 1 (0x1)
Format : AVC
Format/Info : Advanced Video Codec
Format profile : High@L4
Format settings : CABAC / 3 Ref Frames
Format settings, CABAC : Yes
Format settings, Reference frames : 3 frames
Format settings, GOP : M=4, N=15
Codec ID : 27
Duration : 3 h 38 min
Bit rate mode : Constant
Bit rate : 12.0 Mb/s
Width : 1 920 pixels
Height : 1 080 pixels
Display aspect ratio : 16:9
Frame rate : 29.970 (30000/1001) FPS
Color space : YUV
Chroma subsampling : 4:2:0
Bit depth : 8 bits
Scan type : MBAFF
Scan type, store method : Interleaved fields
Scan order : Top Field First
Bits/(Pixel*Frame) : 0.193
Stream size : 18.0 GiB (92%)
Color range : Limited
Color primaries : BT.709
Transfer characteristics : BT.709
Matrix coefficients : BT.709

Audio
ID : 257 (0x101)
Menu ID : 1 (0x1)
Format : AC-3
Format/Info : Audio Coding 3
Commercial name : Dolby Digital
Codec ID : 129
Duration : 3 h 38 min
Bit rate mode : Constant
Bit rate : 384 kb/s
Channel(s) : 2 channels
Channel layout : L R
Sampling rate : 48.0 kHz
Frame rate : 31.250 FPS (1536 SPF)
Compression mode : Lossy
Delay relative to video : -12 ms
Stream size : 601 MiB (3%)
Language : English
Service kind : Complete Main

Menu
ID : 4096 (0x1000)
Menu ID : 1 (0x1)
Duration : 3 h 38 min
List : 256 (0x100) (AVC) / 257 (0x101) (AC-3, English)
Language : / English
Service name : Service01
Service provider : FFmpeg
Service type : digital television

Download:

30th.Seoul.Music.Awards.210131.1080i.IPTV.H264-HeaD.part01.rar
30th.Seoul.Music.Awards.210131.1080i.IPTV.H264-HeaD.part02.rar
30th.Seoul.Music.Awards.210131.1080i.IPTV.H264-HeaD.part03.rar
30th.Seoul.Music.Awards.210131.1080i.IPTV.H264-HeaD.part04.rar
30th.Seoul.Music.Awards.210131.1080i.IPTV.H264-HeaD.part05.rar
30th.Seoul.Music.Awards.210131.1080i.IPTV.H264-HeaD.part06.rar
30th.Seoul.Music.Awards.210131.1080i.IPTV.H264-HeaD.part07.rar
30th.Seoul.Music.Awards.210131.1080i.IPTV.H264-HeaD.part08.rar
30th.Seoul.Music.Awards.210131.1080i.IPTV.H264-HeaD.part09.rar
30th.Seoul.Music.Awards.210131.1080i.IPTV.H264-HeaD.part10.rar
30th.Seoul.Music.Awards.210131.1080i.IPTV.H264-HeaD.part11.rar
30th.Seoul.Music.Awards.210131.1080i.IPTV.H264-HeaD.part12.rar
30th.Seoul.Music.Awards.210131.1080i.IPTV.H264-HeaD.part13.rar
30th.Seoul.Music.Awards.210131.1080i.IPTV.H264-HeaD.part14.rar