Rush – Fly By Night (1975/2015) [40th Anniversary] [Blu-Ray Pure Audio Disc]

Title: Rush: Fly By Night
Released: 1975
Genre: Rock, Prog Rock, Hard Rock
Artist: Geddy Lee (Bass, Guitar, Guitar (Classical), Keyboards, Vocals), Alex Lifeson (Guitar, Guitar (12 String), Guitar (Acoustic), Guitar (Electric)), Neil Peart (Drums, Percussion)

Issued: United States | Universal Music
Duration: 00:37:51
Size: 9.32 GB

Experience 96kHz 24-bit audiophile 5.1 surround sound and stereo on BluRay audio disc, Fly By Night was originally released in 1975 and was the first album to feature drummer Neil Peart, who also became the band’s lyricist. The singles included the title track and ‘Making Memories.’ Fly By Night reached #113 on the Billboard chart, going platinum in both the U.S. and Canada.

Tracklist:

1. Anthem 4:22
2. Best I Can 3:25
3. Beneath, Between and Behind 3:02
4. By-Tor and the Snowdog 8:37
5. Fly By Night 3:21
6. Making Memories 2:58
7. Rivendell 4:57
8. In The End 6:47

Technical Specs
Blu-ray
BD-25 Single-Layer Disc

Video Resolution/Codec
720p/MPEG-2

Aspect Ratio(s)
TBA

Audio Formats
DTS-HD MA 5.1 (96 kHz / 8559 kbps / 24-bit)
Dolby TrueHD 5.1 (96 kHz / 7676 kbps / 24-bit)
LPCM 2.0 (96 kHz / 4608 kbps / 24-bit)

Subtitles/Captions
English

Supplements
Fotogallery

DISC INFO:

Disc Title:     Rush.Fly By Night.40th Anniversary.2015.BDA720p
Disc Size:      10 002 956 668 bytes
Protection:     AACS
BD-Java:        No
BDInfo:         0.5.8

PLAYLIST REPORT:

Name:                   00002.MPLS
Length:                 0:37:51.268 (h:m:s.ms)
Size:                   9 700 829 184 bytes
Total Bitrate:          34,17 Mbps

VIDEO:

Codec                   Bitrate             Description    
-----                   -------             -----------    
MPEG-2 Video            9995 kbps           720p / 23,976 fps / 16:9

AUDIO:

Codec                           Language        Bitrate         Description    
-----                           --------        -------         -----------    
DTS-HD Master Audio             English         8559 kbps       5.1 / 96 kHz / 8559 kbps / 24-bit (DTS Core: 5.1 / 48 kHz / 1509 kbps / 24-bit)
Dolby TrueHD Audio              English         7676 kbps       5.1 / 96 kHz / 7676 kbps / 24-bit (AC3 Embedded: 5.1 / 48 kHz / 448 kbps / DN -4dB)
LPCM Audio                      English         4608 kbps       2.0 / 96 kHz / 4608 kbps / 24-bit

SUBTITLES:

Codec                           Language        Bitrate         Description    
-----                           --------        -------         -----------    
Interactive Graphics            English         53,826 kbps                    

FILES:

Name            Time In         Length          Size            Total Bitrate  
----            -------         ------          ----            -------------  
00003.M2TS      0:00:00.000     0:04:27.225     1 161 056 256   34 759          
00004.M2TS      0:04:27.225     0:03:28.249     930 527 232     35 747          
00005.M2TS      0:07:55.474     0:03:04.642     810 123 264     35 100          
00006.M2TS      0:11:00.117     0:08:39.644     2 254 233 600   34 704          
00007.M2TS      0:19:39.761     0:03:21.159     890 836 992     35 428          
00008.M2TS      0:23:00.921     0:03:01.055     771 969 024     34 110          
00009.M2TS      0:26:01.977     0:05:00.299     1 128 056 832   30 051          
00010.M2TS      0:31:02.277     0:06:48.991     1 754 025 984   34 309

Download:

https://filejoker.net/0t36y09mby6t/RUSH_FLY_BY_NIGHT.part01.rar
https://filejoker.net/54cayn9obsql/RUSH_FLY_BY_NIGHT.part02.rar
https://filejoker.net/20uko3filx5h/RUSH_FLY_BY_NIGHT.part03.rar
https://filejoker.net/cv2hddasnw5e/RUSH_FLY_BY_NIGHT.part04.rar
https://filejoker.net/q7pf1tsg7hgi/RUSH_FLY_BY_NIGHT.part05.rar
https://filejoker.net/185bj2h7hzp3/RUSH_FLY_BY_NIGHT.part06.rar
https://filejoker.net/6a5p0j694mgg/RUSH_FLY_BY_NIGHT.part07.rar
https://filejoker.net/rsqsc0huofxn/RUSH_FLY_BY_NIGHT.part08.rar
https://filejoker.net/m0tz89r4g4vy/RUSH_FLY_BY_NIGHT.part09.rar
https://filejoker.net/hcokqmzie8e8/RUSH_FLY_BY_NIGHT.part10.rar

Blu-ray to FLAC 5.1 24bit/96kHz

RushFlyByNight40thAnniversary19755.19624.part1.rar
RushFlyByNight40thAnniversary19755.19624.part2.rar
RushFlyByNight40thAnniversary19755.19624.part3.rar

Blu-ray to FLAC 2.0 24bit/96kHz

RushFlyByNight40thAnniversary19759624.rar

Leave a Reply

Your email address will not be published. Required fields are marked *