Crosby, Stills, Nash & Young – CSNY 1974 (2014) [Blu-Ray Pure Audio Disc]

Name: Crosby, Stills, Nash & Young: CSNY
Released: 1974
Genre: Folk Rock, Soft Rock
Artist: David Crosby, Stephen Stills, Graham Nash, Neil Young
Issued: United States | Rhino Entertainment

Technical Specs
Blu-ray
BD-25 Single-Layer Disc
Video Resolution/Codec
1080i/AVC MPEG-4
Aspect Ratio(s)
TBA
Audio Formats
English LPCM 2.0 (192 kHz / 9216 kbps / 24-bit)
English Dolby Digital 2.0 (640 kbps)
Subtitles/Captions
None
Supplements
None

David Crosby, Stephen Stills, Graham Nash, and Neil Young announce the release of CSNY 1974, the long awaited boxed set from their historic 1974 tour will be available July 7/8. The forty (40) previously unreleased tracks recorded forty (40) years ago will be packaged in several formats and configurations and released July 7 in international territories, and July 8 in the United States. The box set includes all 40 tracks, a 188-page booklet of never before seen tour photos, and a bonus DVD of previously unreleased concert footage; the box is available as a 3CD/DVD set or Pure Audio Blu-Ray (192kHz/24-bit)/DVD set.
Long-rumored and highly anticipated, CSNY 1974 captures the band’s one-of-a-kind harmonic alchemy during its remarkable outdoor stadium tour, a trek that spanned more than two months, and included 31 concerts, in 24 cities, with combined audiences of over a million people. Produced by Graham Nash and Joel Bernstein, the box set mirrors the electric/acoustic/electric format that the band followed each night on stage, representing an idealized version of a show from the tour.
“This project has been the most difficult, yet rewarding work I’ve ever done in my 50 years of recording,” says Graham Nash. “It rekindled the love I have for my partners and the music we have made together.”
The box set includes some of CSNY’s best-known music; songs like “Suite: Judy Blue Eyes,” “Helpless,” “Wooden Ships,” and “Teach Your Children.” During the 1974 tour, CSNY also introduced new songs that emerged later on various albums, like Crosby’s “Time After Time,” and Nash’s “Fieldworker. Several songs by Young are previously unreleased, including “Traces,” “Love/Art Blues,” “Goodbye Dick,” and “Hawaiian Sunrise.”
CSNY 1974 will be available from CSNY and Rhino in several different configurations listed below, on July 7/8, nearly 40 years to the date after the tour’s first show on July 9, 1974.

Tracklist:
1 Love the One You’re With (Stephen Stills) 6:05
2 Wooden Ships (David Crosby, Stills, Paul Kantner) 6:36
3 Immigration Man (Graham Nash 3:47
4 Helpless (Neil Young) 4:45
5 Carry Me (Crosby) 4:41
6 Johnny’s Garden (Stills) 5:20
7 Traces (Young) 3:19
8 Grave Concern (Nash) 3:11
9 On the Beach (Young) 7:40
10 Black Queen (Stills) 8:25
11 Almost Cut My Hair (Crosby) 7:07
12 Change Partners (Stills) 3:51
13 The Lee Shore (Crosby) 4:48
14 Only Love Can Break Your Heart (Young) 3:28
15 Our House (Nash) 3:38
16 Fieldworker (Nash) 3:07
17 Guinevere (Crosby) 6:14
18 Time After Time (Crosby) 3:48
19 Prison Song (Nash) 4:02
20 Long May You Run (Young) 4:13
21 Goodbye Dick (Young) 1:40
22 Mellow My Mind (Young) 2:33
23 Old Man (Young) 4:23
24 Word Game (Stills) 6:16
25 Myth of Sisyphus (Stills, Kenny Passarelli) 4:44
26 Blackbird (John Lennon, Paul McCartney) 2:48
27 Love Art Blues (Young) 2:57
28 Hawaiian Sunrise (Young) 2:56
29 Teach Your Children (Nash) 3:16
30 Suite: Judy Blue Eyes (Stills) 9:25
31 Déjà Vu (Crosby) 8:29
32 My Angel (Stills) 4:35
33 Pre-Road Downs (Nash) 3:30
34 Don’t Be Denied (Young) 6:40
35 Revolution Blues (Young) 4:21
36 Military Madness (Nash) 5:04
37 Long Time Gone (Crosby) 6:05
38 Pushed It Over the End (Young) 7:52
39 Chicago (Nash) 4:43
40 Ohio (Young) 6:00

DISC INFO:

Disc Title:     CSNY_1974
Disc Size:      15 882 863 635 bytes
Protection:     AACS
BD-Java:        No
BDInfo:         0.5.8

PLAYLIST REPORT:

Name:                   00000.MPLS
Length:                 3:16:31.780 (h:m:s.ms)
Size:                   15 882 332 160 bytes
Total Bitrate:          10,78 Mbps

VIDEO:

Codec                   Bitrate             Description
-----                   -------             -----------
MPEG-4 AVC Video        109 kbps            1080i / 29,970 fps / 16:9 / High Profile 4.1

AUDIO:

Codec                           Language        Bitrate         Description
-----                           --------        -------         -----------
Dolby Digital Audio             English         640 kbps        2.0 / 48 kHz / 640 kbps
LPCM Audio                      English         9216 kbps       2.0 / 192 kHz / 9216 kbps / 24-bit

FILES:

Name            Time In         Length          Size            Total Bitrate
----            -------         ------          ----            -------------
00000.M2TS      0:00:00.000     1:01:04.827     4 936 157 184   10 775
00001.M2TS      1:01:04.827     0:32:55.139     2 660 321 280   10 775
00002.M2TS      1:33:59.967     0:53:41.351     4 338 837 504   10 775
00003.M2TS      2:27:41.319     0:48:50.460     3 947 016 192   10 775

Download:

CrosbyStillsNashYoungCSNY19742014BD25Audio.part01.rar
CrosbyStillsNashYoungCSNY19742014BD25Audio.part02.rar
CrosbyStillsNashYoungCSNY19742014BD25Audio.part03.rar
CrosbyStillsNashYoungCSNY19742014BD25Audio.part04.rar
CrosbyStillsNashYoungCSNY19742014BD25Audio.part05.rar
CrosbyStillsNashYoungCSNY19742014BD25Audio.part06.rar
CrosbyStillsNashYoungCSNY19742014BD25Audio.part07.rar
CrosbyStillsNashYoungCSNY19742014BD25Audio.part08.rar
CrosbyStillsNashYoungCSNY19742014BD25Audio.part09.rar
CrosbyStillsNashYoungCSNY19742014BD25Audio.part10.rar
CrosbyStillsNashYoungCSNY19742014BD25Audio.part11.rar