Carl Nielsen – Symphonies Nos. 1-6 – London Symphony Orchestra, Sir Colin Davis (2015) [Blu-Ray Pure Audio Disc + DSF Stereo DSD64/2.82MHz]

Сomposer: Carl Nielsen (1865-1931)
Artist: London Symphony Orchestra, Sir Colin Davis
Title: Carl Nielsen – Symphonies Nos. 1-6
Genre: Classical
Label: © LSO Live
Release Date: 2014
Recording Location: October 2011 (Symphony No 1), December 2011 (Symphony Nos 2 & 3), May 2010 (Symphony No 4), October 2009 (Symphony No 5), May & June 2011 (Symphony No 6) at Barbican, London, United Kingdom
Quality: Blu-ray Audio
Length: 03:21:35
Video: MPEG-4 AVC 950 kbps / 1920*1080i / 29,970 fps / 16:9 / High Profile 4.1
Audio#1: English DTS-HD MA 5.1 / 192 kHz / 10924 kbps / 24-bit (DTS Core: 6.1 / 48 kHz / 1509 kbps / 24-bit)
Audio#2: English LPCM 2.0 / 192 kHz / 9216 kbps / 24-bit
Size: 31.71 GB

These recordings, made during Sir Colin Davis’ ‘Indian summer’ with the orchestra, are acknowledged to be amongst the finest recordings ever made of this repertoire, receiving numerous awards. The symphonies were originally released between 2011 and 2013 and will now be made available together for the first time as a beautifully packaged 3 SACD box set, including one Pure Audio Blu-ray disc.
Despite giving titles to the majority of his symphonies, Danish composer Carl Nielsen was often vague about what influenced each work. Nevertheless he was a master symphonist and his music is mesmerising, combining propulsive energy with lyrical invention.

 

Tracklist:
  Carl Nielsen (1865-1931)
  Symphony No. 1 in G minor, Op. 7, FS 16
I. Allegro orgoglioso
II. Andante
III. Allegro comodo
IV. Finale – Allegro con fuoco
  Symphony No. 2, “The Four Temperaments”, Op. 16, FS 29
I. Allegro collerico
II. Allegro comodo e flemmatico
III. Andante malincolico
IV. Allegro sanguineo – Marziale
  Symphony No. 3 “Sinfonia Espansiva”, Op. 27, FS 60
I. Allegro espansivo
II. Andante pastorale
III. Allegretto un poco
IV. Finale – Allegro
  Symphony No. 4 “The Inextinguishable”, Op. 29, FS 76
I. Allegro
II. Poco allegretto
III. Poco adagio quasi andante
IV. Allegro
  Symphony No. 5, Op. 50, FS 97
I. I – Tempo giusto
II. I – Adagio
III. II – Allegro
  Symphony No. 6 “Sinfonia semplice”, FS 116
I. Tempo giusto
II. Humoreske – Allegretto
III. Proposta seria – Adagio
IV. Tema con variazioni – Allegro

Personnel:
London Symphony Orchestra
Sir Colin Davis, conductor

 

DISC INFO:

Disc Title:     Nielsen.Symphonies Nos. 1-6.LSO, Sir Colin Davis.2015.BD1080i
Disc Size:      49 440 825 809 bytes
Protection:     AACS
BD-Java:        Yes
BDInfo:         0.5.8

PLAYLIST REPORT:

Name:                   00000.MPLS
Length:                 3:21:35.349 (h:m:s.ms)
Size:                   34 044 162 048 bytes
Total Bitrate:          22,52 Mbps

VIDEO:

Codec                   Bitrate             Description     
-----                   -------             -----------     
MPEG-4 AVC Video        950 kbps            1080i / 29,970 fps / 16:9 / High Profile 4.1

AUDIO:

Codec                           Language        Bitrate         Description     
-----                           --------        -------         -----------     
DTS-HD Master Audio             English         10924 kbps      5.1 / 192 kHz / 10924 kbps / 24-bit (DTS Core: 5.1 / 48 kHz / 1509 kbps / 24-bit)
LPCM Audio                      English         9216 kbps       2.0 / 192 kHz / 9216 kbps / 24-bit

FILES:

Name            Time In         Length          Size            Total Bitrate   
----            -------         ------          ----            -------------   
00000.M2TS      0:00:00.000     1:05:15.244     11 043 809 280  22 566          
00001.M2TS      1:05:15.244     1:06:05.428     11 168 501 760  22 532          
00002.M2TS      2:11:20.672     1:10:14.677     11 831 851 008  22 458

 

 

Blu-Ray Pure Audio Disc:

https://filejoker.net/q3yes510t08h/Nielsen.Symphonies.Nos.1-6.LSO.Sir.Colin.Davis.2015.part01.rar
https://filejoker.net/yt2yk5fh5njx/Nielsen.Symphonies.Nos.1-6.LSO.Sir.Colin.Davis.2015.part02.rar
https://filejoker.net/gi449zw8ogq4/Nielsen.Symphonies.Nos.1-6.LSO.Sir.Colin.Davis.2015.part03.rar
https://filejoker.net/urg31oz9zj9q/Nielsen.Symphonies.Nos.1-6.LSO.Sir.Colin.Davis.2015.part04.rar
https://filejoker.net/g9g2qhi2kyy0/Nielsen.Symphonies.Nos.1-6.LSO.Sir.Colin.Davis.2015.part05.rar
https://filejoker.net/zyc7whkh316r/Nielsen.Symphonies.Nos.1-6.LSO.Sir.Colin.Davis.2015.part06.rar
https://filejoker.net/bon7fow0cefl/Nielsen.Symphonies.Nos.1-6.LSO.Sir.Colin.Davis.2015.part07.rar
https://filejoker.net/35g4p7c6sug0/Nielsen.Symphonies.Nos.1-6.LSO.Sir.Colin.Davis.2015.part08.rar
https://filejoker.net/802ysph58tml/Nielsen.Symphonies.Nos.1-6.LSO.Sir.Colin.Davis.2015.part09.rar
https://filejoker.net/8m16jueodz54/Nielsen.Symphonies.Nos.1-6.LSO.Sir.Colin.Davis.2015.part10.rar
https://filejoker.net/ep1qshb5isdu/Nielsen.Symphonies.Nos.1-6.LSO.Sir.Colin.Davis.2015.part11.rar
https://filejoker.net/q9jjcawt5kwe/Nielsen.Symphonies.Nos.1-6.LSO.Sir.Colin.Davis.2015.part12.rar
https://filejoker.net/7a43d6ch5a0b/Nielsen.Symphonies.Nos.1-6.LSO.Sir.Colin.Davis.2015.part13.rar
https://filejoker.net/ylabibyrlxys/Nielsen.Symphonies.Nos.1-6.LSO.Sir.Colin.Davis.2015.part14.rar
https://filejoker.net/7a9t12i16d03/Nielsen.Symphonies.Nos.1-6.LSO.Sir.Colin.Davis.2015.part15.rar
https://filejoker.net/6hp84ljh4e9m/Nielsen.Symphonies.Nos.1-6.LSO.Sir.Colin.Davis.2015.part16.rar
https://filejoker.net/4yqtd0k5plh6/Nielsen.Symphonies.Nos.1-6.LSO.Sir.Colin.Davis.2015.part17.rar
https://filejoker.net/suvhfa69vtdr/Nielsen.Symphonies.Nos.1-6.LSO.Sir.Colin.Davis.2015.part18.rar
https://filejoker.net/gogb4089m12o/Nielsen.Symphonies.Nos.1-6.LSO.Sir.Colin.Davis.2015.part19.rar
https://filejoker.net/5wxtuekkbild/Nielsen.Symphonies.Nos.1-6.LSO.Sir.Colin.Davis.2015.part20.rar
https://filejoker.net/gmh613nu4hqs/Nielsen.Symphonies.Nos.1-6.LSO.Sir.Colin.Davis.2015.part21.rar
https://filejoker.net/6kc2wmbwiori/Nielsen.Symphonies.Nos.1-6.LSO.Sir.Colin.Davis.2015.part22.rar
https://filejoker.net/2mb01nqmgvb2/Nielsen.Symphonies.Nos.1-6.LSO.Sir.Colin.Davis.2015.part23.rar

Blu-ray to DSF Stereo DSD64/2.82MHz

https://filejoker.net/w6al3axje1wy/NielsenSymph0niesN0s.16LS0SirC0linDavis2014DSD64.part01.rar
https://filejoker.net/8412jf2w23y9/NielsenSymph0niesN0s.16LS0SirC0linDavis2014DSD64.part02.rar
https://filejoker.net/yala22z1ozry/NielsenSymph0niesN0s.16LS0SirC0linDavis2014DSD64.part03.rar
https://filejoker.net/stq81owxk6b0/NielsenSymph0niesN0s.16LS0SirC0linDavis2014DSD64.part04.rar
https://filejoker.net/7zdzppbwyg4k/NielsenSymph0niesN0s.16LS0SirC0linDavis2014DSD64.part05.rar
https://filejoker.net/gii3m1mm6cwz/NielsenSymph0niesN0s.16LS0SirC0linDavis2014DSD64.part06.rar
https://filejoker.net/g755da68s1uo/NielsenSymph0niesN0s.16LS0SirC0linDavis2014DSD64.part07.rar
https://filejoker.net/h8hqxb4br1t7/NielsenSymph0niesN0s.16LS0SirC0linDavis2014DSD64.part08.rar
https://filejoker.net/gi4cy1vcjwu4/NielsenSymph0niesN0s.16LS0SirC0linDavis2014DSD64.part09.rar

Leave a Reply

Your email address will not be published. Required fields are marked *