盧冠廷 Lowell Lo – Beyond Imagination Music Live (2015) Blu-ray AVC LPCM 2.0-OURDISC

Released in Hong Kong by Universal Music.

Lowell Lo’s anticipated self-covered comeback album.

Audiophile recording.

CD comes with bonus full length live Blu-ray Disc plus more.

久違了的歌聲.環球發燒製作

Lowell Lo 盧冠廷 《Beyond Imagination》

盧冠廷親自挑選出10首「心水經典」歌曲,重新編奏灌唱,聯同資深音樂製作人葉廣權(Joesph Ip)監製;特別邀請霍世傑(二胡)、譚寶碩(洞簫)、Barry Chung(acoustic結他/尼龍線結他)、Sylvain Gagnon & Terry Chan(bass)、蘇德華、恭碩良、Steve Hinson以及台灣結他高手盧家宏等多位音樂猛人伴奏。

全碟以HI-RES 24bit / 96kHz格式錄製,並由國際頂級發燒製版專家 Sangwook Sunny Nam at Jacobs Well Mastering負責製作,劉賢德(Hi Fi德)全程發燒靚聲監控 (製作過程採用Hi End級名器包括有:Rockport Technologies, VTL, Madison Audio, IsoTek Systems…..)。

勢如破竹銷量直迫「白金唱片」!
CD+BD 終極版本9月21日正式上市

盛意推介!

Artist: Lowell Lo

Title: Beyond Imagination

Label: Universal Music

Release Date: Sep 21, 2015

Catalog Number: 8888781

UPC: 0602488887816

Number of Discs: 2

Format: CD/Blu-ray Disc

Blu-ray Region: All

Country of Origin: Hong Kong

Tracklisting:

CD

  1. 快樂老實人 (電影 1/2段情 主題曲)
  2. 陪着你走
  3. 最愛是誰 (電影 最愛 主題曲)
  4. 世事何曾是絕對 (電影1/2 段情 插曲)
  5. 一生所愛 (電影 西遊記大結局之仙履奇緣 插曲)
  6. 天鳥/天籟 (Hybrid mix)
  7. 憑著愛 (電影 群龍戲鳳 主題曲)
  8. 我會掛念你
  9. 但願人長久 (Star mix)
  10. 人間天堂
    Bonus Track
  11. 一生所愛 (One take raw demo)

Blu-ray [Beyond Imagination Music Live]

  1. 快樂老實人 (二胡 : 霍世潔)
  2. 陪着你走
  3. 最愛是誰
  4. 世事何曾是絕對
  5. 一生所愛 (二胡 : 霍世潔)
  6. 天鳥/天籟 (Hybrid mix)
  7. 憑著愛
  8. 我會掛念你
  9. 但願人長久 (Star mix)
  10. 人間天堂
    Music Videos
  11. 陪着你走
  12. 一生所愛
  13. 人間天堂 Finding Uncharted Grounds

《盧冠廷Beyond Imagination Music Live》

久違靚聲高水準重現
獲著名二胡演奏家霍世潔伴奏

盧冠廷,一個熟悉的名字,一把久違的聲音,即將在《盧冠廷Beyond Imagination Music Live》重現。

盧冠廷是香港樂壇八十年代最早期創作歌手的代表,才華洋溢而且風格多樣化,作曲無數,不少歌手的經典名曲都是出自他手。雖然久未推出唱片,但盧冠廷對音樂的熱誠從沒停止過,一直鑽研和學習音樂知識,亦繼續創作,不斷地裝備自己。今年六月,盧冠廷將會推出Hi-fi發燒碟《Beyond Imagination》,重新演繹自己的名曲和寫給他人的經典作品。是日於九龍灣零碳天地舉行小型音樂會,率先跟樂迷分享新碟中的歌曲。

音樂會中,盧冠廷演繹了Hi-fi發燒碟《Beyond Imagination》中所有歌曲,包括〈陪著你走〉、〈人間天堂〉、〈一生所愛〉、〈但願人長久〉、〈快樂老實人〉、〈最愛是誰〉等共十首歌,經過重新編曲後,予人煥然一新的感覺。當中〈快樂老實人〉和〈一生所愛〉更獲著名二胡演奏家霍世潔伴奏,為歌曲增添層次感。久未聽到盧冠廷現場演繹的一眾樂迷,今次難得有機會在新碟推出前欣賞他的天籟之音,水準依舊,各人都聽得如癡如醉。

除了唱歌外,盧冠廷也與樂迷分享每一首歌的獨特之處和製作過程,樂迷聽歌之餘亦可以深入了解。音樂會接近尾聲,盧冠廷最後唱出第一主打〈人間天堂〉,原曲為電影《歲月神偷》主題曲〈歲月輕狂〉,為音樂會劃上完美的句號。

DISC INFO:

Disc Title: LOWELL LO BEYOND IMAGINATION
Disc Size: 22,208,580,971 bytes
Protection: AACS
BD-Java: No
BDInfo: 0.5.6

PLAYLIST REPORT:

Name: 00001.MPLS
Length: 1:23:14 (h:m:s)
Size: 22,189,307,904 bytes
Total Bitrate: 35.54 Mbps

VIDEO:

Codec Bitrate Description


MPEG-4 AVC Video 29953 kbps 1080i / 29.970 fps / 16:9 / High Profile 4.1

AUDIO:

Codec Language Bitrate Description


LPCM Audio Chinese 4608 kbps 2.0 / 96 kHz / 4608 kbps / 24-bit

FILES:

Name Time In Length Size Total Bitrate


00002.M2TS 0:00:00.000 0:51:08.498 13,921,406,976 36,295
00003.M2TS 0:51:08.498 0:03:20.833 904,998,912 36,050
00004.M2TS 0:54:29.332 0:04:16.055 1,146,292,224 35,814
00005.M2TS 0:58:45.388 0:05:21.654 1,452,460,032 36,125
00006.M2TS 1:04:07.043 0:19:07.279 4,764,149,760 33,220

CD (FLAC 16bit/44.1kHz)

https://filejoker.net/tzqtyli9nx0s

Blu-ray Disc:

LwellLBeyndImaginatinMusicLive.2015.BlurayAVCLPCM2.0.is.part01.rar
LwellLBeyndImaginatinMusicLive.2015.BlurayAVCLPCM2.0.is.part02.rar
LwellLBeyndImaginatinMusicLive.2015.BlurayAVCLPCM2.0.is.part03.rar
LwellLBeyndImaginatinMusicLive.2015.BlurayAVCLPCM2.0.is.part04.rar
LwellLBeyndImaginatinMusicLive.2015.BlurayAVCLPCM2.0.is.part05.rar
LwellLBeyndImaginatinMusicLive.2015.BlurayAVCLPCM2.0.is.part06.rar
LwellLBeyndImaginatinMusicLive.2015.BlurayAVCLPCM2.0.is.part07.rar
LwellLBeyndImaginatinMusicLive.2015.BlurayAVCLPCM2.0.is.part08.rar
LwellLBeyndImaginatinMusicLive.2015.BlurayAVCLPCM2.0.is.part09.rar
LwellLBeyndImaginatinMusicLive.2015.BlurayAVCLPCM2.0.is.part10.rar
LwellLBeyndImaginatinMusicLive.2015.BlurayAVCLPCM2.0.is.part11.rar
LwellLBeyndImaginatinMusicLive.2015.BlurayAVCLPCM2.0.is.part12.rar
LwellLBeyndImaginatinMusicLive.2015.BlurayAVCLPCM2.0.is.part13.rar
LwellLBeyndImaginatinMusicLive.2015.BlurayAVCLPCM2.0.is.part14.rar
LwellLBeyndImaginatinMusicLive.2015.BlurayAVCLPCM2.0.is.part15.rar

Leave a Reply

Your email address will not be published. Required fields are marked *