大橋彩香 (Ayaka Ohashi) – AYAKA OHASHI 5th Anniversary Live ~ Give Me Five!!!!! ~ at PACIFICO YOKOHAMA (2020) [Blu-ray to MKV]

2019年9月29日にパシフィコ横浜 国立大ホールにて開催された「大橋彩香 5th Anniversary Live ~ Give Me Five!!!!! ~」の模様を映像化!アーティスト活動5年間を感じられるセットリストに加え、リハーサルやバックステージなどのメイキング映像も収録。

収録内容

1. ダイスキ。
2. ハイライト
3. ABSOLUTE YELL
4. おしえてブルースカイ
5. ユー&アイ
6. シンガロン進化論
7. ヒトツニナリタイ (Acoustic Ver.)
8. 彩りPlace (Acoustic Ver.)
9. Finding Lover
10. Break a Liar
11. Conflict
12. No Surrender
13. RED SEED
14. Maiden Innocence
15. ワガママMIRROR HEART
16. NOISY LOVE POWER☆
17. ENERGY☆SMILE
18. YES!! -Encore-
19. 流星タンバリン -Encore-
20. Give Me Five!!!!! ~Thanks my family□~ -Encore-
21. Making of “Give Me Five!!!!!”

General
Unique ID                                : 207756555994218464151009429651521341823 (0x9C4C750D3C3505D2378AEBFBBD45097F)
Complete name                            : AYAKA OHASHI 5th Anniversary Live ~ Give Me Five!!!!! ~ at PACIFICO YOKOHAMA\AYAKA OHASHI 5th Anniversary Live ~ Give Me Five!!!!! ~ at PACIFICO YOKOHAMA - Live Concert.mkv
Format                                   : Matroska
Format version                           : Version 2
File size                                : 34.2 GiB
Duration                                 : 2 h 21 min
Overall bit rate mode                    : Variable
Overall bit rate                         : 34.6 Mb/s
Movie name                               : AYAKA OHASHI 5th Anniversary Live ~ Give Me Five!!!!! ~ at PACIFICO YOKOHAMA
Encoded date                             : UTC 2020-07-25 05:06:02
Writing application                      : MakeMKV v1.15.2 win(x64-release)
Writing library                          : libmakemkv v1.15.2 (1.3.10/1.5.2) win(x64-release)

Video
ID                                       : 1
ID in the original source medium         : 4113 (0x1011)
Format                                   : AVC
Format/Info                              : Advanced Video Codec
Format profile                           : High@L4.1
Format settings                          : CABAC / 4 Ref Frames
Format settings, CABAC                   : Yes
Format settings, Reference frames        : 4 frames
Codec ID                                 : V_MPEG4/ISO/AVC
Duration                                 : 2 h 21 min
Bit rate mode                            : Variable
Bit rate                                 : 32.3 Mb/s
Maximum bit rate                         : 40.0 Mb/s
Width                                    : 1 920 pixels
Height                                   : 1 080 pixels
Display aspect ratio                     : 16:9
Frame rate mode                          : Constant
Frame rate                               : 23.976 (24000/1001) FPS
Color space                              : YUV
Chroma subsampling                       : 4:2:0
Bit depth                                : 8 bits
Scan type                                : Progressive
Bits/(Pixel*Frame)                       : 0.650
Stream size                              : 31.9 GiB (93%)
Language                                 : English
Default                                  : No
Forced                                   : No
Original source medium                   : Blu-ray

Audio
ID                                       : 2
ID in the original source medium         : 4352 (0x1100)
Format                                   : PCM
Format settings                          : Little / Signed
Codec ID                                 : A_PCM/INT/LIT
Duration                                 : 2 h 21 min
Bit rate mode                            : Constant
Bit rate                                 : 2 304 kb/s
Channel(s)                               : 2 channels
Sampling rate                            : 48.0 kHz
Frame rate                               : 30.000 FPS (1600 SPF)
Bit depth                                : 24 bits
Stream size                              : 2.28 GiB (7%)
Title                                    : Stereo
Language                                 : Japanese
Default                                  : Yes
Forced                                   : No
Original source medium                   : Blu-ray

Menu
00:00:00.000                             : en:Chapter 01
00:02:02.080                             : en:Chapter 02
00:06:13.164                             : en:Chapter 03
00:10:50.066                             : en:Chapter 04
00:13:23.636                             : en:Chapter 05
00:17:48.067                             : en:Chapter 06
00:23:05.592                             : en:Chapter 07
00:27:02.454                             : en:Chapter 08
00:30:49.097                             : en:Chapter 09
00:33:11.990                             : en:Chapter 10
00:38:48.492                             : en:Chapter 11
00:43:26.186                             : en:Chapter 12
00:48:06.091                             : en:Chapter 13
00:52:22.264                             : en:Chapter 14
00:56:09.366                             : en:Chapter 15
00:57:24.065                             : en:Chapter 16
01:01:38.027                             : en:Chapter 17
01:06:05.628                             : en:Chapter 18
01:10:40.653                             : en:Chapter 19
01:14:50.319                             : en:Chapter 20
01:19:41.485                             : en:Chapter 21
01:23:25.583                             : en:Chapter 22
01:27:24.072                             : en:Chapter 23
01:33:13.796                             : en:Chapter 24
01:39:35.094                             : en:Chapter 25
01:44:40.691                             : en:Chapter 26
01:59:12.228                             : en:Chapter 27
02:06:34.003                             : en:Chapter 28
02:12:04.082                             : en:Chapter 29
02:21:25.477                             : en:Chapter 30

Live Concert

AYAKAOHASHI5thAnniversaryLiveGiveMeFiveatPACIFICOYOKOHAMALiveConcert.part01.rar
AYAKAOHASHI5thAnniversaryLiveGiveMeFiveatPACIFICOYOKOHAMALiveConcert.part02.rar
AYAKAOHASHI5thAnniversaryLiveGiveMeFiveatPACIFICOYOKOHAMALiveConcert.part03.rar
AYAKAOHASHI5thAnniversaryLiveGiveMeFiveatPACIFICOYOKOHAMALiveConcert.part04.rar
AYAKAOHASHI5thAnniversaryLiveGiveMeFiveatPACIFICOYOKOHAMALiveConcert.part05.rar
AYAKAOHASHI5thAnniversaryLiveGiveMeFiveatPACIFICOYOKOHAMALiveConcert.part06.rar
AYAKAOHASHI5thAnniversaryLiveGiveMeFiveatPACIFICOYOKOHAMALiveConcert.part07.rar
AYAKAOHASHI5thAnniversaryLiveGiveMeFiveatPACIFICOYOKOHAMALiveConcert.part08.rar
AYAKAOHASHI5thAnniversaryLiveGiveMeFiveatPACIFICOYOKOHAMALiveConcert.part09.rar
AYAKAOHASHI5thAnniversaryLiveGiveMeFiveatPACIFICOYOKOHAMALiveConcert.part10.rar
AYAKAOHASHI5thAnniversaryLiveGiveMeFiveatPACIFICOYOKOHAMALiveConcert.part11.rar
AYAKAOHASHI5thAnniversaryLiveGiveMeFiveatPACIFICOYOKOHAMALiveConcert.part12.rar
AYAKAOHASHI5thAnniversaryLiveGiveMeFiveatPACIFICOYOKOHAMALiveConcert.part13.rar
AYAKAOHASHI5thAnniversaryLiveGiveMeFiveatPACIFICOYOKOHAMALiveConcert.part14.rar
AYAKAOHASHI5thAnniversaryLiveGiveMeFiveatPACIFICOYOKOHAMALiveConcert.part15.rar
AYAKAOHASHI5thAnniversaryLiveGiveMeFiveatPACIFICOYOKOHAMALiveConcert.part16.rar
AYAKAOHASHI5thAnniversaryLiveGiveMeFiveatPACIFICOYOKOHAMALiveConcert.part17.rar
AYAKAOHASHI5thAnniversaryLiveGiveMeFiveatPACIFICOYOKOHAMALiveConcert.part18.rar
AYAKAOHASHI5thAnniversaryLiveGiveMeFiveatPACIFICOYOKOHAMALiveConcert.part19.rar
AYAKAOHASHI5thAnniversaryLiveGiveMeFiveatPACIFICOYOKOHAMALiveConcert.part20.rar
AYAKAOHASHI5thAnniversaryLiveGiveMeFiveatPACIFICOYOKOHAMALiveConcert.part21.rar
AYAKAOHASHI5thAnniversaryLiveGiveMeFiveatPACIFICOYOKOHAMALiveConcert.part22.rar
AYAKAOHASHI5thAnniversaryLiveGiveMeFiveatPACIFICOYOKOHAMALiveConcert.part23.rar
AYAKAOHASHI5thAnniversaryLiveGiveMeFiveatPACIFICOYOKOHAMALiveConcert.part24.rar

Winrar Recovery Volumes

AYAKAOHASHI5thAnniversaryLiveGiveMeFiveatPACIFICOYOKOHAMALiveConcert.part01.rev
AYAKAOHASHI5thAnniversaryLiveGiveMeFiveatPACIFICOYOKOHAMALiveConcert.part02.rev

Making of

AYAKAOHASHI5thAnniversaryLiveGiveMeFiveatPACIFICOYOKOHAMAMakingOf.part1.rar
AYAKAOHASHI5thAnniversaryLiveGiveMeFiveatPACIFICOYOKOHAMAMakingOf.part2.rar
AYAKAOHASHI5thAnniversaryLiveGiveMeFiveatPACIFICOYOKOHAMAMakingOf.part3.rar
AYAKAOHASHI5thAnniversaryLiveGiveMeFiveatPACIFICOYOKOHAMAMakingOf.part4.rar
AYAKAOHASHI5thAnniversaryLiveGiveMeFiveatPACIFICOYOKOHAMAMakingOf.part5.rar