堀江由衣 (Horie Yui) – ワールドエンドの庭 [24bit/96kHz]

レーベル KING RECORDS
配信開始日 2015.03.11
収録曲数 全13曲
販売データ ハイレゾ|FLAC|96.0kHz/24bit

http://mora.jp/package/43000014/KICS3122_F/

収録内容

  1. プロローグ~edge of the unknown~
    作詞:山崎寛子/作・編曲:大川茂伸
  2. The♡World’s♡End(TVアニメ「ゴールデンタイム」2ndオープニング主題歌) 作詞・曲・編曲:清 竜人
  3. Stand Up!(スマートフォンゲーム「白猫プロジェクト」主題歌)
    作詞:あさのますみ/作・編曲:大川茂伸
  4. Happy End
    作詞:川田瑠夏/作・編曲:Tak Miyazawa
  5. Sweet & Sweet CHERRY(TVアニメ「ゴールデンタイム」エンディング主題歌)
    作詞:YUKAKO/作・編曲:Kohei by SIMONSAYZ/ストリングスアレンジ:長谷川智樹
  6. ミステリー…
    作詞・作曲・編曲:清 竜人
  7. 半永久的に愛してよ♡(TVアニメ「ゴールデンタイム」2ndエンディング主題歌)
    作詞・曲・編曲:清 竜人
  8. ほんのちょっと
    作詞・曲・編曲:川田瑠夏
  9. Golden Time(TVアニメ「ゴールデンタイム」オープニング主題歌)
    作詞:吉田詩織/作・編曲:Kohei by SIMONSAYZ
  10. この場所で(OVA「みツわの」主題歌)
    作詞:吉田詩織/作曲:SHIKI/編曲:大川茂伸
  11. innocent note
    作詞・曲:宮崎まゆ/編曲:浅野尚志
  12. Girl Friend
    作詞・曲・編曲:清 竜人
  13. Garden
    作詞・曲・編曲:山崎寛子

foobar2000 1.3.8 / Dynamic Range Meter 1.1.1
log date: 2015-08-22 17:34:38

——————————————————————————–
Analyzed: 堀江由衣 / ワールドエンドの庭
——————————————————————————–

DR Peak RMS Duration Track
——————————————————————————–
DR8 -1.06 dB -12.82 dB 1:53 01-プロローグ~edge of the unknown~
DR8 -0.05 dB -10.25 dB 5:08 02-The♡World’s♡End
DR6 -1.71 dB -9.43 dB 4:53 03-Stand Up!
DR9 -0.07 dB -10.16 dB 4:17 04-Happy End
DR9 -0.01 dB -10.77 dB 3:15 05-Sweet & Sweet CHERRY
DR8 -0.55 dB -9.73 dB 3:54 06-ミステリー…
DR10 -0.04 dB -12.64 dB 5:21 07-半永久的に愛してよ♡
DR8 -0.13 dB -10.19 dB 4:03 08-ほんのちょっと
DR10 -0.06 dB -11.14 dB 3:45 09-Golden Time
DR7 -0.83 dB -9.79 dB 4:14 10-この場所で
DR8 -0.35 dB -9.61 dB 2:52 11-innocent note
DR9 -0.05 dB -11.20 dB 3:51 12-Girl Friend
DR7 -2.00 dB -12.38 dB 4:59 13-Garden
——————————————————————————–

Number of tracks: 13
Official DR value: DR8

Samplerate: 96000 Hz
Channels: 2
Bits per sample: 24
Bitrate: 4616 kbps
Codec: FLAC

Download:

https://filejoker.net/bg29x0n15cg7/mqs.link_Horie.Yui.9th.album.part1.rar
https://filejoker.net/q0b6x005nahv/mqs.link_Horie.Yui.9th.album.part2.rar

or

https://filejoker.net/zk825hwm9cah/mqs.link_1503119thalbumHIRES.part1.rar
https://filejoker.net/6nbw88sia9pc/mqs.link_1503119thalbumHIRES.part2.rar

Leave a Reply

Your email address will not be published. Required fields are marked *