ヴァリアス: 四月は君の嘘 僕と君との音楽帳 [24bit/96kHz]

2014年10月からフジテレビ系“ノイタミナ”で放送されるアニメ「四月は君の嘘」の中で使用されるクラシック音楽を集めたコンピレーションCD。
アニメで登場する楽曲から公生、かをりが演奏する楽曲を中心に印象的なクラシック楽曲をセレクト。モデルアーティストとなっているヴァイオリニスト・篠原悠那、ピアニスト・阪田知樹による演奏で収録。ブックレットには楽曲解説や登場シーンの解説を収録予定。公生とかをりが一緒に演奏した「サン=サーンス:序奏とロンド・カプリチオーソ」、ガラコンサートで公生が一人で演奏することになった「クライスラー/ラフマニノフ編:愛の悲しみ (ピアノ独奏版)」、公生と凪が学園祭で演奏する「チャイコフスキー:“眠りの森の美女”より「ワルツ」(ピアノ連弾版)」などアニメを彩る名曲を70分以上の収録時間でCD1枚に収録。

【収録内容】
1.ベートーベン:ピアノ・ソナタ第14番 <月光> 第3楽章
2.ベートーベン:ヴァイオリン・ソナタ第9番 <クロイツェル> 第1楽章
3.サン=サーンス:序奏とロンド・カプリチオーソ
4.ショパン:エチュード 嬰ハ短調 作品10-4
5.ショパン:エチュード イ短調 作品25-11 <木枯らしのエチュード>
6.ショパン:エチュード ホ短調 作品25-5
7.クライスラー:愛の悲しみ
8.クライスラー/ラフマニノフ編:愛の悲しみ (ピアノ独奏版))
9.スクリャービン:エチュード 嬰ニ短調 作品8-12
10.ドビュッシー:月の光
11.ラヴェル:亡き王女のためのパヴァーヌ
12.チャイコフスキー:“眠りの森の美女”より「ワルツ」(ピアノ連弾版)
13.ショパン:エチュード ハ短調 作品10-12 <革命のエチュード>
14.ショパン:バラード第1番 ト短調 作品23

foobar2000 1.3.8 / Dynamic Range Meter 1.1.1
log date: 2015-08-22 17:23:51

——————————————————————————–
Analyzed: 四月は君の嘘 僕と君との音楽帳 / 四月は君の嘘 僕と君との音楽帳
——————————————————————————–

DR Peak RMS Duration Track
——————————————————————————–
DR11 -0.01 dB -14.50 dB 8:03 01-ベートーベン:ピアノ・ソナタ第14番 <月光> 第3楽章
DR12 -0.01 dB -15.83 dB 12:28 02-ベートーベン:ヴァイオリン・ソナタ第9番 <クロイツェル> 第1楽章
DR11 -0.01 dB -15.70 dB 9:16 03-サン=サーンス:序奏とロンド・カプリチオーソ
DR10 -0.01 dB -12.35 dB 2:05 04-ショパン:エチュード 嬰ハ短調 作品10-4
DR9 -0.01 dB -11.30 dB 4:07 05-ショパン:エチュード イ短調 作品25-11 <木枯らしのエチュード>
DR12 -1.06 dB -17.76 dB 3:20 06-ショパン:エチュード ホ短調 作品25-5
DR13 -2.04 dB -19.37 dB 3:51 07-クライスラー:愛の悲しみ
DR11 -0.01 dB -15.52 dB 4:36 08-クライスラー/ラフマニノフ編:愛の悲しみ (ピアノ独奏版)
DR9 -0.01 dB -12.46 dB 2:23 09-スクリャービン:エチュード 嬰ニ短調 作品8-12
DR15 -0.95 dB -23.67 dB 4:34 10-ドビュッシー:月の光
DR17 -0.71 dB -23.22 dB 6:55 11-ラヴェル:亡き王女のためのパヴァーヌ
DR12 -0.01 dB -14.78 dB 4:03 12-チャイコフスキー:”眠りの森の美女”より「ワルツ」(ピアノ連弾版)
DR10 -0.01 dB -12.85 dB 2:33 13-ショパン:エチュード ハ短調 作品10-12 <革命のエチュード>
DR10 -0.01 dB -14.92 dB 9:02 14-ショパン:バラード第1番 ト短調 作品23
——————————————————————————–

Number of tracks: 14
Official DR value: DR12

Samplerate: 96000 Hz
Channels: 2
Bits per sample: 24
Bitrate: 4616 kbps
Codec: FLAC

Download:

https://filejoker.net/ggspd6t6x5gd/mqs.link_4988010063825.part1.rar
https://filejoker.net/9dgosdc90hks/mqs.link_4988010063825.part2.rar
https://filejoker.net/tss8l1iimd4z/mqs.link_4988010063825.part3.rar

Leave a Reply

Your email address will not be published. Required fields are marked *